Стартрек: Возмездие / Star Trek Into Darkness (2013) HDRip [H.264] [MP4|1024x436]

 
 Статистика раздачи 
Размер: 2.04 ГБ   |  Зарегистрирован: 23 авг 2016, 18:01   |   .torrent скачан: 0 раз
Сидеров: 1  [ 0 байт/сек ]     Личеров: 0  [ 0 байт/сек ]  
  

Стартрек: Возмездие / Star Trek Into Darkness (2013) HDRip [H.264] [MP4|1024x436]

Сообщение explosiveone » 23 авг 2016, 18:01

Стартрек: Возмездие / Star Trek Into Darkness (2013) HDRip

«Beyond the darkness, lies greatness»
Производство: США, Paramount Pictures, Bad Robot, Skydance Productions
Жанр: Фантастика, Боевик, Приключения

Режиссер: Джей Джей Абрамс
Актеры: Крис Пайн, Закари Куинто, Бенедикт Камбербэтч, Саймон Пегг, Карл Урбан, Зои Салдана, Элис Ив, Джон Чо, Антон Ельчин, Питер Уэллер

Описание:
Вернувшись на Землю, команда корабля «Энтерпрайз» обнаруживает, что деятельность и принципы их организации подорваны изнутри. Флот скован необъяснимым ужасом и бездействует, пока мир все глубже погружается в бездну. Капитан Кирк берет на себя руководство операцией по поимке злодея, ответственного за этот хаос и способного уничтожить все человечество. В запутанной игре не на жизнь, а на смерть, любовь и дружба будут принесены в жертву ради единственного, что осталось у Кирка — его команды.


Возраст: 12+ (зрителям, достигшим 12 лет)
Рейтинг MPAA: PG-13 (детям до 13 лет просмотр нежелателен)

Продолжительность: 02:12:09
Качество видео: HDRip
Перевод: Дублированный - Blu-ray CEE
Язык субтитров: Русский, Английский
Вид субтитров: Вшитые

Видео: AVC/H.264 (Main@L3.0), 1024x436 (2.35:1), 1950 Кбит/сек
Аудио #1: AAC, 2 канала, 128 Кбит/сек - русский (дублированный)
Аудио #2: AAC, 2 канала, 128 Кбит/сек - английский (оригинальный)
Код:
Код: Выделить всё
General
Complete name                            : C:\CREATE\264mod1\out\1\Star.Trek.Into.Darkness.2013.576p.HDRip.AAC.x264.mp4
Format                                   : MPEG-4
Format profile                           : Base Media / Version 2
Codec ID                                 : mp42 (mp42/isom)
File size                                : 2.04 GiB
Duration                                 : 2h 12mn
Overall bit rate mode                    : Variable
Overall bit rate                         : 2 208 Kbps
Movie name                               : Star Trek Into Darkness
Performer                                : J.J. Abrams
Director                                 : J.J. Abrams
Actor                                    : John Cho / Benedict Cumberbatch / Alice Eve / Bruce Greenwood / Simon Pegg / Chris Pine / Zachary Quinto / Zoe Saldana / Karl Urban / Peter Weller / Anton Yelchin
Screenplay by                            : Damon Lindelof / Alex Kurtzman / Roberto Orci
Producer                                 : J.J. Abrams / Bryan Burk / Damon Lindelof / Alex Kurtzman / Roberto Orci
Genre                                    : Sci-Fi & Fantasy
ContentType                              : Short Film
Description                              : When the crew of the Enterprise is called back home, they find an unstoppable force of terror from
Recorded date                            : 2013-05-17
Encoded date                             : UTC 2016-08-21 06:08:47
Tagged date                              : UTC 2016-08-21 06:17:58
Copyright                                : © 2013 Paramount Pictures Corporation
Cover                                    : Yes
Rating                                   : None
LongDescription                          : J.J. Abrams STAR TREK INTO DARKNESS is the best-reviewed blockbuster of the year. When a ruthless mastermind known as Khan (Benedict Cumberbatch) declares a one-man war on the Federation, Captain Kirk (Chris Pine), Spock (Zachary Quinto), and the daring crew of the U.S.S. Enterprise will embark on the greatest manhunt in history. It will take all of their skills and teamwork to defend Earth and eliminate Khan’s threat in this “sleek, thrilling epic.” (Owen Gleiberman, Entertainment Weekly)
ContentRating                            : mpaa|PG-13|300|

Video
ID                                       : 1
Format                                   : AVC
Format/Info                              : Advanced Video Codec
Format profile                           : Main@L3
Format settings, CABAC                   : No
Format settings, ReFrames                : 3 frames
Codec ID                                 : avc1
Codec ID/Info                            : Advanced Video Coding
Duration                                 : 2h 12mn
Bit rate                                 : 1 950 Kbps
Width                                    : 1 024 pixels
Height                                   : 436 pixels
Display aspect ratio                     : 2.35:1
Frame rate mode                          : Variable
Frame rate                               : 23.976 (24000/1001) fps
Minimum frame rate                       : 23.810 fps
Maximum frame rate                       : 24.390 fps
Color space                              : YUV
Chroma subsampling                       : 4:2:0
Bit depth                                : 8 bits
Scan type                                : Progressive
Bits/(Pixel*Frame)                       : 0.182
Stream size                              : 1.79 GiB (88%)
Writing library                          : x264 core 148 r2705+54 9f484c1 t_mod_Custom [8-bit@all X86_64]
Encoding settings                        : cabac=0 / ref=3 / deblock=1:-1:-1 / analyse=0x1:0x131 / me=umh / subme=8 / psy=1 / fade_compensate=0.00 / psy_rd=1.00:0.00 / mixed_ref=1 / me_range=32 / chroma_me=1 / trellis=2 / 8x8dct=0 / cqm=0 / deadzone=21,11 / fast_pskip=0 / chroma_qp_offset=-2 / threads=14 / lookahead_threads=2 / sliced_threads=0 / nr=0 / decimate=0 / interlaced=0 / bluray_compat=0 / constrained_intra=0 / fgo=0 / bframes=3 / b_pyramid=1 / b_adapt=2 / b_bias=0 / direct=3 / weightb=1 / open_gop=0 / weightp=2 / keyint=240 / keyint_min=23 / scenecut=40 / intra_refresh=0 / rc_lookahead=50 / rc=2pass / mbtree=1 / bitrate=1950 / ratetol=1.0 / qcomp=0.60 / qpmin=0:0:0 / qpmax=69:69:69 / qpstep=4 / cplxblur=20.0 / qblur=0.5 / vbv_maxrate=10000 / vbv_bufsize=10000 / nal_hrd=none / filler=0 / ip_ratio=1.40 / aq=3:0.90 / aq-sensitivity=10.00 / aq-factor=1.00:1.00:1.00 / aq2=1:1.05 / aq2-sensitivity=15.00 / aq2-factor=1.00:1.00:1.00 / aq3=4:[0.50:0.50]:[0.50:0.50]:[0.50:0.50]:[0.50:0.50] / aq3-sensitivity=10.00 / aq3-factor=[1.00:1.00]:[1.00:1.00]:[1.00:1.00] / aq3-boundary=192:64:24
Encoded date                             : UTC 2016-08-21 06:08:47
Tagged date                              : UTC 2016-08-21 06:17:47
Color range                              : Limited
Matrix coefficients                      : BT.709
Menus                                    : 7

Audio #1
ID                                       : 2
Format                                   : AAC
Format/Info                              : Advanced Audio Codec
Format profile                           : LC
Codec ID                                 : 40
Duration                                 : 2h 12mn
Source duration                          : 2h 12mn
Bit rate mode                            : Variable
Bit rate                                 : 128 Kbps
Maximum bit rate                         : 132 Kbps
Channel(s)                               : 2 channels
Channel positions                        : Front: L R
Sampling rate                            : 48.0 KHz
Frame rate                               : 46.875 fps (1024 spf)
Compression mode                         : Lossy
Stream size                              : 121 MiB (6%)
Source stream size                       : 121 MiB (6%)
Language                                 : Russian
Default                                  : Yes
Alternate group                          : 1
Encoded date                             : UTC 2016-08-21 06:08:47
Tagged date                              : UTC 2016-08-21 06:17:47

Audio #2
ID                                       : 3
Format                                   : AAC
Format/Info                              : Advanced Audio Codec
Format profile                           : LC
Codec ID                                 : 40
Duration                                 : 2h 12mn
Source duration                          : 2h 12mn
Bit rate mode                            : Variable
Bit rate                                 : 128 Kbps
Maximum bit rate                         : 132 Kbps
Channel(s)                               : 2 channels
Channel positions                        : Front: L R
Sampling rate                            : 48.0 KHz
Frame rate                               : 46.875 fps (1024 spf)
Compression mode                         : Lossy
Stream size                              : 121 MiB (6%)
Source stream size                       : 121 MiB (6%)
Language                                 : English
Default                                  : No
Alternate group                          : 1
Encoded date                             : UTC 2016-08-21 06:08:47
Tagged date                              : UTC 2016-08-21 06:17:47

Text #1
ID                                       : 4
Format                                   : Timed Text
Muxing mode                              : sbtl
Codec ID                                 : tx3g
Duration                                 : 52mn 38s
Bit rate mode                            : Variable
Bit rate                                 : 2 bps
Stream size                              : 759 Bytes (0%)
Language                                 : Russian
Default                                  : Yes
Forced                                   : No
Alternate group                          : 2
Encoded date                             : UTC 2016-08-21 06:08:47
Tagged date                              : UTC 2016-08-21 06:17:47

Text #2
ID                                       : 5
Format                                   : Timed Text
Muxing mode                              : sbtl
Codec ID                                 : tx3g
Duration                                 : 2h 3mn
Bit rate mode                            : Variable
Bit rate                                 : 107 bps
Stream size                              : 96.3 KiB (0%)
Language                                 : Russian
Default                                  : No
Forced                                   : No
Alternate group                          : 2
Encoded date                             : UTC 2016-08-21 06:08:47
Tagged date                              : UTC 2016-08-21 06:17:47

Text #3
ID                                       : 6
Format                                   : Timed Text
Muxing mode                              : sbtl
Codec ID                                 : tx3g
Duration                                 : 2h 3mn
Bit rate mode                            : Variable
Bit rate                                 : 71 bps
Stream size                              : 64.3 KiB (0%)
Language                                 : English
Default                                  : No
Forced                                   : No
Alternate group                          : 2
Encoded date                             : UTC 2016-08-21 06:08:47
Tagged date                              : UTC 2016-08-21 06:17:47

Menu
ID                                       : 7
Codec ID                                 : text
Duration                                 : 2h 12mn
Language                                 : English
Encoded date                             : UTC 2016-08-21 06:17:48
Tagged date                              : UTC 2016-08-21 06:17:48
Bit rate mode                            : CBR
Menu For                                 : 1
00:00:00.000                             : 00:00:00.000
00:10:20.370                             : 00:10:20.370
00:19:21.494                             : 00:19:21.494
00:30:03.969                             : 00:30:03.969
00:40:09.115                             : 00:40:09.115
00:46:05.262                             : 00:46:05.262
00:56:38.228                             : 00:56:38.228
01:06:35.782                             : 01:06:35.783
01:12:55.663                             : 01:12:55.663
01:22:45.752                             : 01:22:45.752
01:30:54.741                             : 01:30:54.741
01:38:36.369                             : 01:38:36.369
01:47:09.548                             : 01:47:09.548
01:54:17.142                             : 01:54:17.142
01:59:20.653                             : 01:59:20.653
02:03:18.308                             : 02:03:18.308

Скриншоты:


Время раздачи: 24/7 (круглосуточно) (до появления первых 3-5 скачавших)
 
Не забывайте говорить Спасибо. Не уходите с раздачи!   
Торрент: Зарегистрирован [23 авг 2016, 18:01] Для скачивания .torrent
необходима регистрация
Или скачать с помощью
MediaGet
Статус:
Проверен
 
.torrent скачан: 0 раз
Хэш: 631a8643a7ea18369d85aaec4429658313bd44e0
Размер: 2.04 ГБ (2 188 227 926 байт)
Стать Автором раздачи
 
 
Раздал: 100 ГБ
Скачал: 0 байт
Ратио: Seed.
Сообщения: 94005
Зарегистрирован: 09 апр 2015, 22:31


  • Похожие торренты
    Ответы
    Просмотры
    Последнее сообщение

Вернуться в Видео для мобильных устройств

Ресурс не предоставляет электронные версии произведений, а занимается лишь коллекционированием и каталогизацией ссылок, присылаемых и публикуемых на форуме нашими читателями. Если вы являетесь правообладателем какого-либо представленного материала и не желаете чтобы ссылка на него находилась в нашем каталоге, свяжитесь с нами и мы незамедлительно удалим её. Файлы для обмена на трекере предоставлены пользователями сайта, и администрация не несёт ответственности за их содержание. Просьба не заливать файлы, защищенные авторскими правами, а также файлы нелегального содержания!
cron