XXXI Летние Олимпийские Игры 2016 / Прыжки в воду / Мужчины / Вышка / 10 м / Полуфинал / BBC Olympics [20.08.2016, Прыжки в воду, DVB, 576i, MPEG2, EN]

Плавание, синхронное плавание, прыжки в воду, академическая гребля, гребля на байдарках и каноэ, гребной слалом, парусный спорт
 
 Статистика раздачи 
Размер: 2.71 ГБ   |  Зарегистрирован: 21 авг 2016, 11:39   |   .torrent скачан: 0 раз
Сидеров: 1  [ 0 байт/сек ]     Личеров: 0  [ 0 байт/сек ]  
  

XXXI Летние Олимпийские Игры 2016 / Прыжки в воду / Мужчины / Вышка / 10 м / Полуфинал / BBC Olympics [20.08.2016, Прыжки в воду, DVB, 576i, MPEG2, EN]

Сообщение aLaVodka » 21 авг 2016, 11:39

XXXI Летние Олимпийские Игры 2016
Прыжки в воду / Мужчины / Вышка / 10 м / Полуфинал
Вид спорта: Прыжки в воду
Комментарий: Профессиональный
Язык комментариев: Английский
Описание: XXXI Летние Олимпийские Игры 2016 / Прыжки в воду / Мужчины / Вышка / 10 м / Полуфинал.

За постер спасибо:
Автор рипа: sanchez2011

Качество: DVB
Формат: MPG
Видео кодек: MPEG2
Аудио кодек: MP2
Видео: MPEG2 Video 720x576 (16:9) 25fps 2780kbps
Аудио: MPEG Audio 48000Hz stereo 192kbps
02:02:47
Код: Выделить всё
General
Complete name                            : W:\раздачи\ОИ 2016. Прыжки в воду. Мужчины. 10 м. Полуфинал.mpg
Format                                   : MPEG-PS
File size                                : 2.71 GiB
Duration                                 : 2h 2mn
Overall bit rate mode                    : Variable
Overall bit rate                         : 3 163 Kbps

Video
ID                                       : 224 (0xE0)
Format                                   : MPEG Video
Format version                           : Version 2
Format profile                           : Main@Main
Format settings, BVOP                    : Yes
Format settings, Matrix                  : Custom
Format settings, GOP                     : Variable
Format settings, picture structure       : Frame
Duration                                 : 2h 2mn
Bit rate mode                            : Variable
Bit rate                                 : 2 780 Kbps
Maximum bit rate                         : 15.0 Mbps
Width                                    : 720 pixels
Height                                   : 576 pixels
Display aspect ratio                     : 16:9
Frame rate                               : 25.000 fps
Standard                                 : PAL
Color space                              : YUV
Chroma subsampling                       : 4:2:0
Bit depth                                : 8 bits
Scan type                                : Interlaced
Scan order                               : Top Field First
Compression mode                         : Lossy
Bits/(Pixel*Frame)                       : 0.268
Time code of first frame                 : 00:00:00:00
Time code source                         : Group of pictures header
GOP, Open/Closed                         : Open
Stream size                              : 2.38 GiB (88%)

Audio #1
ID                                       : 192 (0xC0)
Format                                   : MPEG Audio
Format version                           : Version 1
Format profile                           : Layer 2
Mode                                     : Joint stereo
Mode extension                           : Intensity Stereo + MS Stereo
Duration                                 : 2h 2mn
Bit rate mode                            : Constant
Bit rate                                 : 192 Kbps
Channel(s)                               : 2 channels
Sampling rate                            : 48.0 KHz
Compression mode                         : Lossy
Delay relative to video                  : 3ms
Stream size                              : 169 MiB (6%)

Audio #2
ID                                       : 193 (0xC1)
Format                                   : MPEG Audio
Format version                           : Version 1
Format profile                           : Layer 2
Mode                                     : Joint stereo
Duration                                 : 2h 2mn
Bit rate mode                            : Constant
Bit rate                                 : 128 Kbps
Channel(s)                               : 2 channels
Sampling rate                            : 48.0 KHz
Compression mode                         : Lossy
Delay relative to video                  : 3ms
Stream size                              : 112 MiB (4%)
 
Не забывайте говорить Спасибо. Не уходите с раздачи!   
Торрент: Зарегистрирован [21 авг 2016, 11:39] Скачать торрент
Скачать торрент
[ Размер 14.07 КБ / Просмотров 24 ]
Статус:
Проверен
 
.torrent скачан: 0 раз
Хэш: 6df4f6a17b55c9e901fa4bcbeaef96625d06dbcd
Размер: 2.71 ГБ (2 913 056 768 байт)
Стать Автором раздачи
 
 
Раздал: 100 ГБ
Скачал: 0 байт
Ратио: Seed.
Сообщения: 195904
Зарегистрирован: 09 апр 2015, 20:00


  • Похожие торренты
    Ответы
    Просмотры
    Последнее сообщение

Вернуться в Водные виды спорта / Гребля

Ресурс не предоставляет электронные версии произведений, а занимается лишь коллекционированием и каталогизацией ссылок, присылаемых и публикуемых на форуме нашими читателями. Если вы являетесь правообладателем какого-либо представленного материала и не желаете чтобы ссылка на него находилась в нашем каталоге, свяжитесь с нами и мы незамедлительно удалим её. Файлы для обмена на трекере предоставлены пользователями сайта, и администрация не несёт ответственности за их содержание. Просьба не заливать файлы, защищенные авторскими правами, а также файлы нелегального содержания!
cron