Звездный путь VIII: Первый контакт / Star Trek VIII: First Contact (1996) HDRip [H.264] [MP4|1024x436] SDI Media

 
 Статистика раздачи 
Размер: 1.6 ГБ   |  Зарегистрирован: 21 авг 2016, 10:08   |   .torrent скачан: 0 раз
Сидеров: 1  [ 0 байт/сек ]     Личеров: 0  [ 0 байт/сек ]  
  

Звездный путь VIII: Первый контакт / Star Trek VIII: First Contact (1996) HDRip [H.264] [MP4|1024x436] SDI Media

Сообщение explosiveone » 21 авг 2016, 10:08

Звездный путь VIII: Первый контакт / Star Trek VIII: First Contact (1996) HDRip SDI Media

«Resistance is Futile»
Производство: США, Paramount Pictures, Digital Image Associates
Жанр: Фантастика, Боевик, Детектив, Приключения

Режиссер: Джонатан Фрейкс
Актеры: Патрик Стюарт, Джонатан Фрейкс, Брент Спайнер, ЛеВар Бёртон, Майкл Дорн, Гейтс МакФэдден, Марина Сиртис, Элфри Вудард, Джеймс Кромуэлл, Элис Крайдж

Описание:
Восьмая часть всемирно известного сериала о приключениях бесстрашных звездолетчиков в далеком будущем. Посланцы враждебной инопланетной цивилизации проникают в прошлое, и первый контакт человечества с внеземным разумом, способный положить начало новой космической эры, оказывается под угрозой срыва.
Перед экипажем легендарного космического корабля «Энтерпрайз» и его мужественным капитаном Пикардом стоит трудная и опасная задача - помешать осуществлению планов врага и спасти будущее Земли.


Возраст: 12+ (зрителям, достигшим 12 лет)
Рейтинг MPAA: PG-13 (детям до 13 лет просмотр нежелателен)

Продолжительность: 01:50:44
Качество видео: HDRip
Перевод: Многоголосый закадровый - SDI Media
Язык субтитров: Русский, Английский
Вид субтитров: Вшитые

Видео: AVC/H.264 (Main@L3.0), 1024x436 (2.35:1), 1800 Кбит/сек
Аудио #1: AAC, 2 канала, 128 Кбит/сек - русский (многоголосый закадровый)
Аудио #2: AAC, 2 канала, 128 Кбит/сек - английский (оригинальный)
Код:
Код: Выделить всё
General
Complete name                            : C:\CREATE\264mod1\out\1\Star.Trek.(VIII).First.Contact.1996.576p.HDRip.AAC.x264.mp4
Format                                   : MPEG-4
Format profile                           : Base Media / Version 2
Codec ID                                 : mp42 (mp42/isom)
File size                                : 1.60 GiB
Duration                                 : 1h 50mn
Overall bit rate mode                    : Variable
Overall bit rate                         : 2 063 Kbps
Movie name                               : Star Trek VIII: First Contact
Performer                                : Jonathan Frakes
Director                                 : Jonathan Frakes
Actor                                    : Patrick Stewart / Jonathan Frakes / Brent Spiner / LeVar Burton / Michael Dorn / Gates McFadden / Marina Sirtis / Alfre Woodard / James Cromwell / Patti Yasutake
Screenplay by                            : Brannon Braga / Ronald D. Moore
Producer                                 : Rick Berman
Genre                                    : Sci-Fi & Fantasy
ContentType                              : Short Film
Description                              : Captain Jean-Luc Picard and the Next Generation crew engage in their most thrilling adventure yet. They call themselves the Borg - a half organic, half-machine collective with a sole purpose: to conquer and assimilate all races. Led by their seductive and sadistic queen (Alice Krige), the Borg are headed to Earth with a devious plan to alter history. Picard's last encounter with the Borg almost killed him. Now he wants vengeance.
Recorded date                            : 1996-11-22
Encoded date                             : UTC 2016-08-20 10:49:57
Tagged date                              : UTC 2016-08-20 11:36:20
Copyright                                : TM & COPYRIGHT © 1996 BY PARAMOUNT PICTURES. ALL RIGHTS RESERVED. TM, ® & Copyright © 2005 Paramount Pictures
Cover                                    : Yes
Rating                                   : None
LongDescription                          : Captain Jean-Luc Picard and the Next Generation crew engage in their most thrilling adventure yet. They call themselves the Borg - a half organic, half-machine collective with a sole purpose: to conquer and assimilate all races. Led by their seductive and sadistic queen (Alice Krige), the Borg are headed to Earth with a devious plan to alter history. Picard's last encounter with the Borg almost killed him. Now he wants vengeance.
ContentRating                            : mpaa|PG-13|300|

Video
ID                                       : 1
Format                                   : AVC
Format/Info                              : Advanced Video Codec
Format profile                           : Main@L3
Format settings, CABAC                   : No
Format settings, ReFrames                : 3 frames
Codec ID                                 : avc1
Codec ID/Info                            : Advanced Video Coding
Duration                                 : 1h 50mn
Bit rate                                 : 1 800 Kbps
Width                                    : 1 024 pixels
Height                                   : 436 pixels
Display aspect ratio                     : 2.35:1
Frame rate mode                          : Variable
Frame rate                               : 23.976 (24000/1001) fps
Minimum frame rate                       : 23.810 fps
Maximum frame rate                       : 24.390 fps
Color space                              : YUV
Chroma subsampling                       : 4:2:0
Bit depth                                : 8 bits
Scan type                                : Progressive
Bits/(Pixel*Frame)                       : 0.168
Stream size                              : 1.39 GiB (87%)
Writing library                          : x264 core 148 r2705+54 9f484c1 t_mod_Custom [8-bit@all X86_64]
Encoding settings                        : cabac=0 / ref=3 / deblock=1:-1:-1 / analyse=0x1:0x131 / me=umh / subme=8 / psy=1 / fade_compensate=0.00 / psy_rd=1.00:0.10 / mixed_ref=1 / me_range=32 / chroma_me=1 / trellis=2 / 8x8dct=0 / cqm=0 / deadzone=21,11 / fast_pskip=0 / chroma_qp_offset=-3 / threads=14 / lookahead_threads=2 / sliced_threads=0 / nr=0 / decimate=0 / interlaced=0 / bluray_compat=0 / constrained_intra=0 / fgo=0 / bframes=3 / b_pyramid=1 / b_adapt=2 / b_bias=0 / direct=3 / weightb=1 / open_gop=0 / weightp=2 / keyint=240 / keyint_min=23 / scenecut=40 / intra_refresh=0 / rc_lookahead=50 / rc=2pass / mbtree=1 / bitrate=1800 / ratetol=1.0 / qcomp=0.60 / qpmin=0:0:0 / qpmax=69:69:69 / qpstep=4 / cplxblur=20.0 / qblur=0.5 / vbv_maxrate=10000 / vbv_bufsize=10000 / nal_hrd=none / filler=0 / ip_ratio=1.40 / aq=3:0.90 / aq-sensitivity=10.00 / aq-factor=1.00:1.00:1.00 / aq2=1:0.80 / aq2-sensitivity=15.00 / aq2-factor=1.00:1.00:1.00 / aq3=4:[0.50:0.50]:[0.50:0.50]:[0.50:0.50]:[0.50:0.50] / aq3-sensitivity=10.00 / aq3-factor=[1.00:1.00]:[1.00:1.00]:[1.00:1.00] / aq3-boundary=192:64:24
Encoded date                             : UTC 2016-08-20 10:49:57
Tagged date                              : UTC 2016-08-20 10:56:16
Color range                              : Limited
Matrix coefficients                      : BT.709
Menus                                    : 6

Audio #1
ID                                       : 2
Format                                   : AAC
Format/Info                              : Advanced Audio Codec
Format profile                           : LC
Codec ID                                 : 40
Duration                                 : 1h 50mn
Source duration                          : 1h 50mn
Bit rate mode                            : Variable
Bit rate                                 : 128 Kbps
Maximum bit rate                         : 132 Kbps
Channel(s)                               : 2 channels
Channel positions                        : Front: L R
Sampling rate                            : 48.0 KHz
Frame rate                               : 46.875 fps (1024 spf)
Compression mode                         : Lossy
Stream size                              : 101 MiB (6%)
Source stream size                       : 101 MiB (6%)
Language                                 : Russian
Default                                  : Yes
Alternate group                          : 1
Encoded date                             : UTC 2016-08-20 10:49:57
Tagged date                              : UTC 2016-08-20 10:56:16

Audio #2
ID                                       : 3
Format                                   : AAC
Format/Info                              : Advanced Audio Codec
Format profile                           : LC
Codec ID                                 : 40
Duration                                 : 1h 50mn
Source duration                          : 1h 50mn
Bit rate mode                            : Variable
Bit rate                                 : 128 Kbps
Maximum bit rate                         : 132 Kbps
Channel(s)                               : 2 channels
Channel positions                        : Front: L R
Sampling rate                            : 48.0 KHz
Frame rate                               : 46.875 fps (1024 spf)
Compression mode                         : Lossy
Stream size                              : 101 MiB (6%)
Source stream size                       : 101 MiB (6%)
Language                                 : English
Default                                  : No
Alternate group                          : 1
Encoded date                             : UTC 2016-08-20 10:49:57
Tagged date                              : UTC 2016-08-20 10:56:16

Text #1
ID                                       : 4
Format                                   : Timed Text
Muxing mode                              : sbtl
Codec ID                                 : tx3g
Duration                                 : 1h 44mn
Bit rate mode                            : Variable
Bit rate                                 : 73 bps
Stream size                              : 55.9 KiB (0%)
Language                                 : Russian
Default                                  : Yes
Forced                                   : No
Alternate group                          : 2
Encoded date                             : UTC 2016-08-20 10:49:57
Tagged date                              : UTC 2016-08-20 10:56:16

Text #2
ID                                       : 5
Format                                   : Timed Text
Muxing mode                              : sbtl
Codec ID                                 : tx3g
Duration                                 : 1h 44mn
Bit rate mode                            : Variable
Bit rate                                 : 43 bps
Stream size                              : 33.1 KiB (0%)
Language                                 : English
Default                                  : No
Forced                                   : No
Alternate group                          : 2
Encoded date                             : UTC 2016-08-20 10:49:57
Tagged date                              : UTC 2016-08-20 10:56:16

Menu
ID                                       : 6
Codec ID                                 : text
Duration                                 : 1h 50mn
Language                                 : English
Encoded date                             : UTC 2016-08-20 10:56:17
Tagged date                              : UTC 2016-08-20 10:56:17
Bit rate mode                            : CBR
Menu For                                 : 1
00:00:00.000                             : 00:00:00.000
00:02:48.668                             : 00:02:48.668
00:04:45.243                             : 00:04:45.243
00:07:30.783                             : 00:07:30.783
00:11:52.628                             : 00:11:52.628
00:13:54.917                             : 00:13:54.917
00:17:21.957                             : 00:17:21.957
00:22:25.635                             : 00:22:25.635
00:24:24.838                             : 00:24:24.838
00:25:52.884                             : 00:25:52.884
00:27:08.752                             : 00:27:08.752
00:28:10.063                             : 00:28:10.063
00:31:14.289                             : 00:31:14.289
00:37:50.935                             : 00:37:50.935
00:39:16.353                             : 00:39:16.353
00:43:52.171                             : 00:43:52.171
00:46:13.604                             : 00:46:13.604
00:49:17.579                             : 00:49:17.579
00:55:11.850                             : 00:55:11.850
00:58:20.121                             : 00:58:20.121
01:01:31.729                             : 01:01:31.729
01:05:16.287                             : 01:05:16.287
01:13:52.261                             : 01:13:52.261
01:16:24.079                             : 01:16:24.079
01:23:20.704                             : 01:23:20.704
01:25:36.548                             : 01:25:36.548
01:28:45.153                             : 01:28:45.153
01:33:33.774                             : 01:33:33.774
01:37:31.637                             : 01:37:31.637
01:39:59.827                             : 01:39:59.827
01:45:34.911                             : 01:45:34.911

Скриншоты:


Время раздачи: 24/7 (круглосуточно) (до появления первых 3-5 скачавших)
 
Не забывайте говорить Спасибо. Не уходите с раздачи!   
Торрент: Зарегистрирован [21 авг 2016, 10:08] Для скачивания .torrent
необходима регистрация
Или скачать с помощью
MediaGet
Статус:
Проверен
 
.torrent скачан: 0 раз
Хэш: 52acf51c407db2b67d63e51f68b0f617694f14de
Размер: 1.6 ГБ (1 713 741 226 байт)
Стать Автором раздачи
 
 
Раздал: 100 ГБ
Скачал: 0 байт
Ратио: Seed.
Сообщения: 94053
Зарегистрирован: 09 апр 2015, 22:31


  • Похожие торренты
    Ответы
    Просмотры
    Последнее сообщение

Вернуться в Видео для мобильных устройств

Ресурс не предоставляет электронные версии произведений, а занимается лишь коллекционированием и каталогизацией ссылок, присылаемых и публикуемых на форуме нашими читателями. Если вы являетесь правообладателем какого-либо представленного материала и не желаете чтобы ссылка на него находилась в нашем каталоге, свяжитесь с нами и мы незамедлительно удалим её. Файлы для обмена на трекере предоставлены пользователями сайта, и администрация не несёт ответственности за их содержание. Просьба не заливать файлы, защищенные авторскими правами, а также файлы нелегального содержания!
cron