Звездный путь VII: Поколения / Star Trek VII: Generations (1994) HDRip [H.264] [MP4|1024x428] SDI Media

 
 Статистика раздачи 
Размер: 1.7 ГБ   |  Зарегистрирован: 21 авг 2016, 10:08   |   .torrent скачан: 0 раз
Сидеров: 1  [ 0 байт/сек ]     Личеров: 0  [ 0 байт/сек ]  
  

Звездный путь VII: Поколения / Star Trek VII: Generations (1994) HDRip [H.264] [MP4|1024x428] SDI Media

Сообщение explosiveone » 21 авг 2016, 10:08

Звездный путь VII: Поколения / Star Trek VII: Generations (1994) HDRip SDI Media

«Beyond time. Beyond the known universe. Beyond imagination. An adventure for a new generation»
Производство: США, Paramount Pictures
Жанр: Фантастика, Боевик, Детектив, Приключения

Режиссер: Дэвид Карсон
Актеры: Патрик Стюарт, Джонатан Фрейкс, Брент Спайнер, ЛеВар Бёртон, Майкл Дорн, Гейтс МакФэдден, Марина Сиртис, Малкольм МакДауэлл, Джеймс Дуэн, Уолтер Кениг

Описание:
Слава первопроходцев, увенчанных лаврами, зовет на подвиги Новое поколение искателей приключений в бездонных глубинах мегагалактик. В прологе фильма капитан Кирк попадает в космическую воронку, где смещены понятия о времени.
Спустя семьдесят пять лет потомки звёздных путешественников натыкаются на эту же самую воронку и сталкиваются с безумцем - разрушителем, мечущемся по звёздным дорожкам в поисках бессмертия. Капитан Пикард отказывается от собственного бессмертия во имя жизни будущих поколений и вступает в смертельную схватку с безумцем


Рейтинг MPAA: PG (рекомендуется присутствие родителей)

Продолжительность: 01:57:59
Качество видео: HDRip
Перевод: Многоголосый закадровый - SDI Media
Язык субтитров: Русский, Английский
Вид субтитров: Вшитые

Видео: AVC/H.264 (Main@L3.0), 1024x428 (2.40:1), 1800 Кбит/сек
Аудио #1: AAC, 2 канала, 128 Кбит/сек - русский (многоголосый закадровый)
Аудио #2: AAC, 2 канала, 128 Кбит/сек - английский (оригинальный)
Код:
Код: Выделить всё
General
Complete name                            : C:\CREATE\264mod1\out\1\Star.Trek.(VII).Generations.1994.576p.HDRip.AAC.x264.mp4
Format                                   : MPEG-4
Format profile                           : Base Media / Version 2
Codec ID                                 : mp42 (mp42/isom)
File size                                : 1.70 GiB
Duration                                 : 1h 57mn
Overall bit rate mode                    : Variable
Overall bit rate                         : 2 063 Kbps
Movie name                               : Star Trek VII: Generations
Performer                                : David Carson
Director                                 : David Carson
Actor                                    : Patrick Stewart / William Shatner / Malcolm McDowell / Jonathan Frakes / Brent Spiner / Whoopi Goldberg / LeVar Burton / Michael Dorn / Gates McFadden / Marina Sirtis
Screenplay by                            : Brannon Braga / Ronald D. Moore
Producer                                 : Richard C. Berman
Genre                                    : Sci-Fi & Fantasy
ContentType                              : Short Film
Description                              : Stardate: the 23rd Century. Retired Starfleet officers James T. Kirk (William Shatner), Montgomery Scott (James Doohan) and Pavel Chekov (Walter Koenig) are guests of honor aboard the newly christened Enterprise-B. A test run takes an unexpected turn, however, when the starship encounters two vessels trapped inside the Nexus, a mysterious energy ribbon. During a perilous rescue attempt, Kirk is swept out into space. Seven decades later, Captain Jean-Luc Picard (Patrick Stewart) and the crew of Enterprise-D rescue an El Aurian physicist named Soran (Malcolm McDowell). Unbeknownst to Picard, Soran harbors a deadly plan that includes the destruction of the Enterprise and millions of lives. Now Picard's only hope for a future rests within the Nexus...and a legendary captain from the past.
Recorded date                            : 2001-11-06
Encoded date                             : UTC 2016-08-20 10:56:32
Tagged date                              : UTC 2016-08-20 11:18:52
Copyright                                : © TM & Copyright 2007 Paramount Pictures
Cover                                    : Yes
Rating                                   : None
LongDescription                          : Stardate: the 23rd Century. Retired Starfleet officers James T. Kirk (William Shatner), Montgomery Scott (James Doohan) and Pavel Chekov (Walter Koenig) are guests of honor aboard the newly christened Enterprise-B. A test run takes an unexpected turn, however, when the starship encounters two vessels trapped inside the Nexus, a mysterious energy ribbon. During a perilous rescue attempt, Kirk is swept out into space. Seven decades later, Captain Jean-Luc Picard (Patrick Stewart) and the crew of Enterprise-D rescue an El Aurian physicist named Soran (Malcolm McDowell). Unbeknownst to Picard, Soran harbors a deadly plan that includes the destruction of the Enterprise and millions of lives. Now Picard's only hope for a future rests within the Nexus...and a legendary captain from the past.
ContentRating                            : mpaa|PG|200|

Video
ID                                       : 1
Format                                   : AVC
Format/Info                              : Advanced Video Codec
Format profile                           : Main@L3
Format settings, CABAC                   : No
Format settings, ReFrames                : 3 frames
Codec ID                                 : avc1
Codec ID/Info                            : Advanced Video Coding
Duration                                 : 1h 57mn
Bit rate                                 : 1 800 Kbps
Width                                    : 1 024 pixels
Height                                   : 428 pixels
Display aspect ratio                     : 2.40:1
Frame rate mode                          : Variable
Frame rate                               : 23.976 (24000/1001) fps
Minimum frame rate                       : 23.810 fps
Maximum frame rate                       : 24.390 fps
Color space                              : YUV
Chroma subsampling                       : 4:2:0
Bit depth                                : 8 bits
Scan type                                : Progressive
Bits/(Pixel*Frame)                       : 0.171
Stream size                              : 1.48 GiB (87%)
Writing library                          : x264 core 148 r2705+54 9f484c1 t_mod_Custom [8-bit@all X86]
Encoding settings                        : cabac=0 / ref=3 / deblock=1:-1:-1 / analyse=0x1:0x111 / me=umh / subme=8 / psy=1 / fade_compensate=0.00 / psy_rd=1.00:0.15 / mixed_ref=1 / me_range=32 / chroma_me=1 / trellis=2 / 8x8dct=0 / cqm=0 / deadzone=21,11 / fast_pskip=0 / chroma_qp_offset=-3 / threads=12 / lookahead_threads=2 / sliced_threads=0 / nr=0 / decimate=0 / interlaced=0 / bluray_compat=0 / constrained_intra=0 / fgo=0 / bframes=3 / b_pyramid=1 / b_adapt=2 / b_bias=0 / direct=3 / weightb=1 / open_gop=0 / weightp=2 / keyint=240 / keyint_min=23 / scenecut=40 / intra_refresh=0 / rc_lookahead=50 / rc=2pass / mbtree=1 / bitrate=1800 / ratetol=1.0 / qcomp=0.60 / qpmin=0:0:0 / qpmax=69:69:69 / qpstep=4 / cplxblur=20.0 / qblur=0.5 / vbv_maxrate=10000 / vbv_bufsize=10000 / nal_hrd=none / filler=0 / ip_ratio=1.40 / aq=1:0.90 / aq-sensitivity=10.00 / aq-factor=1.00:1.00:1.00 / aq2=0 / aq3=0
Encoded date                             : UTC 2016-08-20 10:56:32
Tagged date                              : UTC 2016-08-20 11:03:50
Color range                              : Limited
Matrix coefficients                      : BT.709
Menus                                    : 6

Audio #1
ID                                       : 2
Format                                   : AAC
Format/Info                              : Advanced Audio Codec
Format profile                           : LC
Codec ID                                 : 40
Duration                                 : 1h 57mn
Source duration                          : 1h 57mn
Bit rate mode                            : Variable
Bit rate                                 : 128 Kbps
Maximum bit rate                         : 133 Kbps
Channel(s)                               : 2 channels
Channel positions                        : Front: L R
Sampling rate                            : 48.0 KHz
Frame rate                               : 46.875 fps (1024 spf)
Compression mode                         : Lossy
Stream size                              : 108 MiB (6%)
Source stream size                       : 108 MiB (6%)
Language                                 : Russian
Default                                  : Yes
Alternate group                          : 1
Encoded date                             : UTC 2016-08-20 10:56:32
Tagged date                              : UTC 2016-08-20 11:03:50

Audio #2
ID                                       : 3
Format                                   : AAC
Format/Info                              : Advanced Audio Codec
Format profile                           : LC
Codec ID                                 : 40
Duration                                 : 1h 57mn
Source duration                          : 1h 57mn
Bit rate mode                            : Variable
Bit rate                                 : 128 Kbps
Maximum bit rate                         : 131 Kbps
Channel(s)                               : 2 channels
Channel positions                        : Front: L R
Sampling rate                            : 48.0 KHz
Frame rate                               : 46.875 fps (1024 spf)
Compression mode                         : Lossy
Stream size                              : 108 MiB (6%)
Source stream size                       : 108 MiB (6%)
Language                                 : English
Default                                  : No
Alternate group                          : 1
Encoded date                             : UTC 2016-08-20 10:56:32
Tagged date                              : UTC 2016-08-20 11:03:50

Text #1
ID                                       : 4
Format                                   : Timed Text
Muxing mode                              : sbtl
Codec ID                                 : tx3g
Duration                                 : 1h 53mn
Bit rate mode                            : Variable
Bit rate                                 : 71 bps
Stream size                              : 58.7 KiB (0%)
Language                                 : Russian
Default                                  : Yes
Forced                                   : No
Alternate group                          : 2
Encoded date                             : UTC 2016-08-20 10:56:32
Tagged date                              : UTC 2016-08-20 11:03:51

Text #2
ID                                       : 5
Format                                   : Timed Text
Muxing mode                              : sbtl
Codec ID                                 : tx3g
Duration                                 : 1h 53mn
Bit rate mode                            : Variable
Bit rate                                 : 53 bps
Stream size                              : 44.3 KiB (0%)
Language                                 : English
Default                                  : No
Forced                                   : No
Alternate group                          : 2
Encoded date                             : UTC 2016-08-20 10:56:32
Tagged date                              : UTC 2016-08-20 11:03:51

Menu
ID                                       : 6
Codec ID                                 : text
Duration                                 : 1h 57mn
Language                                 : English
Encoded date                             : UTC 2016-08-20 11:03:51
Tagged date                              : UTC 2016-08-20 11:03:51
Bit rate mode                            : CBR
Menu For                                 : 1
00:00:00.000                             : 00:00:00.000
00:07:14.142                             : 00:07:14.142
00:18:15.677                             : 00:18:15.677
00:24:33.388                             : 00:24:33.388
00:27:45.162                             : 00:27:45.163
00:32:07.258                             : 00:32:07.258
00:43:16.594                             : 00:43:16.594
00:45:49.329                             : 00:45:49.329
00:51:45.060                             : 00:51:45.060
00:57:46.921                             : 00:57:46.921
01:06:17.348                             : 01:06:17.348
01:10:49.995                             : 01:10:49.995
01:19:58.001                             : 01:19:58.001
01:29:03.880                             : 01:29:03.880
01:39:44.228                             : 01:39:44.228
01:49:59.217                             : 01:49:59.217

Скриншоты:


Время раздачи: 24/7 (круглосуточно) (до появления первых 3-5 скачавших)
 
Не забывайте говорить Спасибо. Не уходите с раздачи!   
Торрент: Зарегистрирован [21 авг 2016, 10:08] Для скачивания .torrent
необходима регистрация
Или скачать с помощью
MediaGet
Статус:
Проверен
 
.torrent скачан: 0 раз
Хэш: 6153a75be6e9ec5e9486d7242af5f123d9ef0021
Размер: 1.7 ГБ (1 825 592 331 байт)
Стать Автором раздачи
 
 
Раздал: 100 ГБ
Скачал: 0 байт
Ратио: Seed.
Сообщения: 94015
Зарегистрирован: 09 апр 2015, 22:31


  • Похожие торренты
    Ответы
    Просмотры
    Последнее сообщение

Вернуться в Видео для мобильных устройств

Ресурс не предоставляет электронные версии произведений, а занимается лишь коллекционированием и каталогизацией ссылок, присылаемых и публикуемых на форуме нашими читателями. Если вы являетесь правообладателем какого-либо представленного материала и не желаете чтобы ссылка на него находилась в нашем каталоге, свяжитесь с нами и мы незамедлительно удалим её. Файлы для обмена на трекере предоставлены пользователями сайта, и администрация не несёт ответственности за их содержание. Просьба не заливать файлы, защищенные авторскими правами, а также файлы нелегального содержания!
cron