Бумеранг / Без срока давности. Бумеранг-2 (Алай А. И.) [2011, 2012, Документальный, DVB]

 
 Статистика раздачи 
Размер: 987.95 МБ   |  Зарегистрирован: 20 авг 2016, 12:18   |   .torrent скачан: 1 раз
Сидеров: 3  [ 0 байт/сек ]     Личеров: 0  [ 0 байт/сек ]  
  

Бумеранг / Без срока давности. Бумеранг-2 (Алай А. И.) [2011, 2012, Документальный, DVB]

Сообщение aLaVodka » 20 авг 2016, 12:18

Бумеранг / Без срока давности. Бумеранг-2

#77Год выпуска: 2011, 2012
Страна: Республика Беларусь
Производство: УП «Национальная киностудия «Беларусьфильм»
Жанр: Документальный
Продолжительность: 00:26:14 + 00:26:30
Перевод: Не требуется
Русские субтитры: нет
Режиссер: Алай А. И.

Релиз:

Описание:
"Бумеранг" (2011)
История, которая будет отражена в фильме, началась в самом начале Великой Отечественной войны. В центре города казнили молодых подпольщиков, почти подростков. Имя юноши узнали спустя много лет, а вот имя девушки неизвестно. Казнь, как и полагается, снимали. Фотография впервые появилась в Нюрнберге на процессе над фашистскими преступниками, а через много лет – на выставке, которую организовал в Мюнхене немецкий публицист Ханс Хеер. Журналистка одной из ведущих немецких газет, придя на фотовыставку, узнала в офицере, осуществляющем казнь в июле 41-ого в Минске, своего отца. История фотографии, а к ней уже обращались документалисты тридцать лет назад, а также истории казненных молодых белорусских подпольщиков станут одним из сюжетов фильма. Вторая часть будет снята в Германии. Бригитта Мёллер, а именно так звали журналистку, справиться с осознанием того, что ее отец убивал, не смогла, она покончила жизнь самоубийством.

"Без срока давности. Бумеранг-2" (2012)
Фильм является продолжением картины «Бумеранг», в центре которой фотография казни молодых подпольщиков в оккупированном Минске 26 октября 1941 года. Авторам удалось установить личность немецкого офицера на снимке. Однако, до сих пор остается неизвестным имя второго офицера, непосредственно палача. Известно только, что исполнителями карательной акции были военнослужащие литовского полицейского батальона. Фильм-поиск последовательно ведет к установлению имени основного персонажа казни.

Доп. информация:
Автор сценария: Алай Анатолий Иванович
Операторы-постановщики: Милешкин Сергей Павлович, Казазаев Анатолий Васильевич

Запись потока *.ts с наземного цифрового телеканала "Беларусь 3".

Благодарность: за помощь с недостающим материалом и . Обоим большое спасибо!

Подобные раздачи:
Охотники за нацистами
Мои раздачи:
Все

http://BY.rutracker.org/forum/tracker.php?rid=9778909
http://UA.rutracker.org/forum/tracker.php?rid=9778909

Избранные:

1) Я - гражданин Республики Беларусь. Архитектурные и художественные шедевры Беларуси [2008, RUS]
2) Государственная политика [Документальный цикл, TVRip, 2010]
3) Беларусь. Взгляд извне [2005, документальный сериал, TVRip]
4) Трилогия: Белая Русь, Чарующая Беларусь, Путешествие из Беларуси в Россию [2010-2011 г., Документальный, DVD5]
5) Правда о западной «демократии» и белорусском «тоталитаризме» [Беларусь 2011, Документальное расследование]
6) Задорнов в Беларуси. Беларусь - это значительно улучшенный Советский Союз [2010-2011 г., Интервью, TVRip]
7) [Журнал] Экономика Беларуси (16 номеров) [2007-2010, PDF, RUS]
8) Армия - Журнал Вооруженных сил республики Беларусь. (81 номер) [1996-2010, PDF, RUS]
9) Страна Моя, Беларусь! Заставка телеканал СТВ Минск. Белоруссия, Мир, Несвиж и др. zweizwei [2010, рекламный ролик, заставка, HD-Video]
10) Радзивиллы Несвижские владения Костел Божьего тела [2011 г., хроникально-документальный, TVRip]
11) Полёты на воздушном шаре. Новогрудок. Беларусь. zweizwei / Belarus Novogrudok [2010, HD-Video]
12) Полёты на воздушном шаре / Беларусь, Белоруссия, Гродно, Святск. zweizwei [2009, HD-Video]
13) Вид Гродно с высоты полета (Беларусь)/Выгляд Гродна з вышыні палёту паветранага шара [222]
14) Анархия Прямое действие. Беларусь [2011, документальный фильм, TVRip]
15) Психология девиации (АТН, Беларусь ТВ) [2010, Информационно-аналитические и общественно-политическиепередачи, TVRip]
16) Боль моя - Чернобыль (Беларусь, Коллектив Беларусь ТВ) [2011, Документлный, TVRip]
17) Попов хутор и его обитатели Русс ТВ [2011, Документальный, DVD5]
и сотни других...
Качество: DVB
Контейнер: MKV
Видео кодек: H.264
Аудио кодек: MP2
Видео: MPEG4 Video (H264) 720(785)x576 (49:36) 25fps, 2 210 Kbps
Аудио: MPEG Audio 48000Hz stereo 256kbps
Код: Выделить всё
General
ID                             : 1 (0x1)
Complete name                  : D:\Новая  земля 2\001 Документальный фильмы\ВОВ и другие войны\Есть Бумеранг\Бумеранг (2011-2012)\Без срока давности. Бумеранг-2 (2012).ts
Format                         : MPEG-TS
File size                      : 492 MiB
Duration                       : 26mn 30s
Overall bit rate mode          : Variable
Overall bit rate               : 2 597 Kbps

Video
ID                             : 801 (0x321)
Menu ID                        : 1 (0x1)
Format                         : AVC
Format/Info                    : Advanced Video Codec
Format profile                 : [email protected]
Format settings, CABAC         : Yes
Format settings, ReFrames      : 4 frames
Format settings, GOP           : M=4, N=24
Codec ID                       : 27
Duration                       : 26mn 30s
Bit rate                       : 2 210 Kbps
Width                          : 720 pixels
Height                         : 576 pixels
Display aspect ratio           : 4:3
Frame rate                     : 25.000 fps
Standard                       : PAL
Color space                    : YUV
Chroma subsampling             : 4:2:0
Bit depth                      : 8 bits
Scan type                      : MBAFF
Scan order                     : Top Field First
Bits/(Pixel*Frame)             : 0.213
Stream size                    : 419 MiB (85%)
Color primaries                : BT.601 PAL
Transfer characteristics       : BT.470 System B, BT.470 System G
Matrix coefficients            : BT.601
Color range                    : Limited

Audio
ID                             : 802 (0x322)
Menu ID                        : 1 (0x1)
Format                         : MPEG Audio
Format version                 : Version 1
Format profile                 : Layer 2
Codec ID                       : 3
Duration                       : 26mn 30s
Bit rate mode                  : Constant
Bit rate                       : 256 Kbps
Channel(s)                     : 2 channels
Sampling rate                  : 48.0 KHz
Compression mode               : Lossy
Stream size                    : 48.5 MiB (10%)
Language                       : English
 
Не забывайте говорить Спасибо. Не уходите с раздачи!   
Торрент: Зарегистрирован [20 авг 2016, 12:18] Для скачивания .torrent
необходима регистрация
Или скачать с помощью
MediaGet
Статус:
Проверен
 
.torrent скачан: 1 раз
Хэш: 2a78eddbdcabb017e61116290105d00bc4ffec04
Размер: 987.95 МБ (1 035 936 400 байт)
Стать Автором раздачи
 
 
Раздал: 100 ГБ
Скачал: 0 байт
Ратио: Seed.
Сообщения: 182341
Зарегистрирован: 09 апр 2015, 20:00


  • Похожие торренты
    Ответы
    Просмотры
    Последнее сообщение

Вернуться в Внежанровая документалистика

Кто сейчас на конференции

Сейчас эту тему просматривают: нет зарегистрированных пользователей и гости: 1

Ресурс не предоставляет электронные версии произведений, а занимается лишь коллекционированием и каталогизацией ссылок, присылаемых и публикуемых на форуме нашими читателями. Если вы являетесь правообладателем какого-либо представленного материала и не желаете чтобы ссылка на него находилась в нашем каталоге, свяжитесь с нами и мы незамедлительно удалим её. Файлы для обмена на трекере предоставлены пользователями сайта, и администрация не несёт ответственности за их содержание. Просьба не заливать файлы, защищенные авторскими правами, а также файлы нелегального содержания!