Звездный путь IV: Дорога домой / Star Trek IV: The Voyage Home (1986) HDRip [H.264] [MP4|1024x436] SDI Media

 
 Статистика раздачи 
Размер: 1.71 ГБ   |  Зарегистрирован: 19 авг 2016, 19:01   |   .torrent скачан: 0 раз
Сидеров: 1  [ 0 байт/сек ]     Личеров: 0  [ 0 байт/сек ]  
  

Звездный путь IV: Дорога домой / Star Trek IV: The Voyage Home (1986) HDRip [H.264] [MP4|1024x436] SDI Media

Сообщение explosiveone » 19 авг 2016, 19:01

Звездный путь IV: Дорога домой / Star Trek IV: The Voyage Home (1986) HDRip SDI Media

«Beaming down to Earth December 12 1986»
Производство: США, Paramount Pictures
Жанр: Фантастика, Комедия, Приключения

Режиссер: Леонард Нимой
Актеры: Уильям Шетнер, Леонард Нимой, ДеФорест Келли, Джеймс Дуэн, Джордж Такей, Уолтер Кениг, Нишелль Николс, Джейн Уайатт, Кэтрин Хикс, Марк Ленард

Описание:
Возвращаясь домой с Вулкана на экспроприированном клингонском космическом корабле, Керк и его команда заранее готовятся к худшему. Хотя долг чести выполнен, и Спок снова с нами живой и здоровый, у команды нет более причин радоваться, особенно когда они начинают вспоминать о попутно содеянных проступках.
Неподчинение приказу, угнанный, а затем и самоликвидированный «Энтерпрайз», саботированный «Эксцельсиор» - все это заставляет их строить отнюдь не радужные предположения относительно того, чем их встретит Земля.
Но реальность оказывается куда мрачнее - к Земле приблизился огромный космический корабль неизвестной конструкции, транслирующий на планету запросы на языке китов, к 23-му веку окончательно вымерших. Странный корабль имеет свойство воздействовать на погоду, которая устраивает на Земле сплошные ливни, грозы, ураганы и смерчи. Анализ ситуации позволяет предположить, что если благодаря какому-то чуду на Земле снова появятся киты, то это стабилизирует ситуацию и разрешит надвигающийся конфликт.
И как вы думаете, кто способен сотворить чудо? Естественно, капитан Керк и его команда! Они готовы отправиться в прошлое для того, чтобы найти китов и доставить их в будущее ради спасения всей планеты.
Их путешествие начинается...


Рейтинг MPAA: PG (рекомендуется присутствие родителей)

Продолжительность: 01:58:51
Качество видео: HDRip
Перевод: Многоголосый закадровый - SDI Media
Язык субтитров: Русский, Английский
Вид субтитров: Вшитые

Видео: AVC/H.264 (Main@L3.0), 1024x436 (2.35:1), 1800 Кбит/сек
Аудио #1: AAC, 2 канала, 128 Кбит/сек - русский (многоголосый закадровый)
Аудио #2: AAC, 2 канала, 128 Кбит/сек - английский (оригинальный)
Код:
Код: Выделить всё
General
Complete name                            : C:\CREATE\264mod1\out\1\Star.Trek.(IV).The.Voyage.Home.1986.576p.HDRip.AAC.x264.mp4
Format                                   : MPEG-4
Format profile                           : Base Media / Version 2
Codec ID                                 : mp42 (mp42/isom)
File size                                : 1.71 GiB
Duration                                 : 1h 58mn
Overall bit rate mode                    : Variable
Overall bit rate                         : 2 059 Kbps
Movie name                               : Star Trek IV: The Voyage Home
Performer                                : Leonard Nimoy
Director                                 : Leonard Nimoy
Actor                                    : William Shatner / Leonard Nimoy / DeForest Kelley / George Takei / James Doohan / Catherine Hicks / Walter Koenig / Nichelle Nichols / Jane Wyatt / Mark Lenard
Screenplay by                            : Peter Krikes / Steve Meerson / Nicholas Meyer
Producer                                 : Harve Bennett / Ralph Winter
Genre                                    : Sci-Fi & Fantasy
ContentType                              : Short Film
Description                              : It's the 23rd century, and a mysterious alien power is threatening Earth by evaporating the oceans and destroying the atmosphere. In a frantic attempt to save mankind, Kirk and his crew must time travel back to 1986 San Francisco where they find a world of punk, pizza and exact-change buses that are as alien as anything they've ever encountered in the far reaches of the galaxy. A thrilling, action-packed Star Trek adventure!
Recorded date                            : 1986-11-26
Encoded date                             : UTC 2016-08-19 13:47:58
Tagged date                              : UTC 2016-08-19 13:54:29
Copyright                                : TM & COPYRIGHT © 1986 PARAMOUNT PICTURES. ALL RIGHTS RESERVED. TM, ® & Copyright © 2004 Paramount Pictures
Cover                                    : Yes
Rating                                   : None
LongDescription                          : It's the 23rd century, and a mysterious alien power is threatening Earth by evaporating the oceans and destroying the atmosphere. In a frantic attempt to save mankind, Kirk and his crew must time travel back to 1986 San Francisco where they find a world of punk, pizza and exact-change buses that are as alien as anything they've ever encountered in the far reaches of the galaxy. A thrilling, action-packed Star Trek adventure!
ContentRating                            : mpaa|PG|200|

Video
ID                                       : 1
Format                                   : AVC
Format/Info                              : Advanced Video Codec
Format profile                           : Main@L3
Format settings, CABAC                   : No
Format settings, ReFrames                : 3 frames
Codec ID                                 : avc1
Codec ID/Info                            : Advanced Video Coding
Duration                                 : 1h 58mn
Bit rate                                 : 1 800 Kbps
Width                                    : 1 024 pixels
Height                                   : 436 pixels
Display aspect ratio                     : 2.35:1
Frame rate mode                          : Variable
Frame rate                               : 23.976 (24000/1001) fps
Minimum frame rate                       : 23.810 fps
Maximum frame rate                       : 24.390 fps
Color space                              : YUV
Chroma subsampling                       : 4:2:0
Bit depth                                : 8 bits
Scan type                                : Progressive
Bits/(Pixel*Frame)                       : 0.168
Stream size                              : 1.49 GiB (87%)
Writing library                          : x264 core 148 r2705 3f5ed56
Encoding settings                        : cabac=0 / ref=3 / deblock=1:-1:-1 / analyse=0x1:0x131 / me=umh / subme=8 / psy=1 / psy_rd=1.00:0.00 / mixed_ref=1 / me_range=32 / chroma_me=1 / trellis=2 / 8x8dct=0 / cqm=0 / deadzone=21,11 / fast_pskip=0 / chroma_qp_offset=-2 / threads=12 / lookahead_threads=2 / sliced_threads=0 / nr=0 / decimate=0 / interlaced=0 / bluray_compat=0 / constrained_intra=0 / bframes=3 / b_pyramid=1 / b_adapt=2 / b_bias=0 / direct=3 / weightb=1 / open_gop=0 / weightp=2 / keyint=240 / keyint_min=23 / scenecut=40 / intra_refresh=0 / rc_lookahead=50 / rc=2pass / mbtree=1 / bitrate=1800 / ratetol=1.0 / qcomp=0.60 / qpmin=0 / qpmax=69 / qpstep=4 / cplxblur=20.0 / qblur=0.5 / vbv_maxrate=10000 / vbv_bufsize=10000 / nal_hrd=none / filler=0 / ip_ratio=1.40 / aq=1:0.90
Encoded date                             : UTC 2016-08-19 13:47:58
Tagged date                              : UTC 2016-08-19 13:53:31
Color range                              : Limited
Matrix coefficients                      : BT.709
Menus                                    : 6

Audio #1
ID                                       : 2
Format                                   : AAC
Format/Info                              : Advanced Audio Codec
Format profile                           : LC
Codec ID                                 : 40
Duration                                 : 1h 58mn
Source duration                          : 1h 58mn
Bit rate mode                            : Variable
Bit rate                                 : 128 Kbps
Maximum bit rate                         : 134 Kbps
Channel(s)                               : 2 channels
Channel positions                        : Front: L R
Sampling rate                            : 48.0 KHz
Frame rate                               : 46.875 fps (1024 spf)
Compression mode                         : Lossy
Stream size                              : 109 MiB (6%)
Source stream size                       : 109 MiB (6%)
Language                                 : Russian
Default                                  : Yes
Alternate group                          : 1
Encoded date                             : UTC 2016-08-19 13:47:58
Tagged date                              : UTC 2016-08-19 13:53:31

Audio #2
ID                                       : 3
Format                                   : AAC
Format/Info                              : Advanced Audio Codec
Format profile                           : LC
Codec ID                                 : 40
Duration                                 : 1h 58mn
Source duration                          : 1h 58mn
Bit rate mode                            : Variable
Bit rate                                 : 128 Kbps
Maximum bit rate                         : 133 Kbps
Channel(s)                               : 2 channels
Channel positions                        : Front: L R
Sampling rate                            : 48.0 KHz
Frame rate                               : 46.875 fps (1024 spf)
Compression mode                         : Lossy
Stream size                              : 109 MiB (6%)
Source stream size                       : 109 MiB (6%)
Language                                 : English
Default                                  : No
Alternate group                          : 1
Encoded date                             : UTC 2016-08-19 13:47:58
Tagged date                              : UTC 2016-08-19 13:53:31

Text #1
ID                                       : 4
Format                                   : Timed Text
Muxing mode                              : sbtl
Codec ID                                 : tx3g
Duration                                 : 1h 54mn
Bit rate mode                            : Variable
Bit rate                                 : 102 bps
Stream size                              : 85.6 KiB (0%)
Language                                 : Russian
Default                                  : Yes
Forced                                   : No
Alternate group                          : 2
Encoded date                             : UTC 2016-08-19 13:47:58
Tagged date                              : UTC 2016-08-19 13:53:31

Text #2
ID                                       : 5
Format                                   : Timed Text
Muxing mode                              : sbtl
Codec ID                                 : tx3g
Duration                                 : 1h 54mn
Bit rate mode                            : Variable
Bit rate                                 : 67 bps
Stream size                              : 56.4 KiB (0%)
Language                                 : English
Default                                  : No
Forced                                   : No
Alternate group                          : 2
Encoded date                             : UTC 2016-08-19 13:47:58
Tagged date                              : UTC 2016-08-19 13:53:31

Menu
ID                                       : 6
Codec ID                                 : text
Duration                                 : 1h 58mn
Language                                 : English
Encoded date                             : UTC 2016-08-19 13:53:31
Tagged date                              : UTC 2016-08-19 13:53:31
Menu For                                 : 1
00:00:00.000                             : Opening Credits
00:03:08.938                             : Court-Martial
00:07:02.171                             : Exile
00:13:36.022                             : Heading Home
00:16:43.167                             : Distress Calls
00:27:29.938                             : Time Warp
00:36:06.747                             : San Francisco
00:45:25.389                             : George and Gracie
00:51:33.422                             : Colorful Metaphors
00:58:01.769                             : Professor Scott
01:02:57.647                             : The Truth
01:12:17.666                             : Spycatchers
01:17:38.654                             : Unwelcome Guest
01:22:44.542                             : Rescue
01:28:29.304                             : Whale Hunt
01:37:17.081                             : Crash Landing
01:48:14.279                             : The Enterprise
01:55:00.727                             : End Credits
Bit rate mode                            : VBR

Скриншоты:


Время раздачи: 24/7 (круглосуточно) (до появления первых 3-5 скачавших)
 
Не забывайте говорить Спасибо. Не уходите с раздачи!   
Торрент: Зарегистрирован [19 авг 2016, 19:01] Для скачивания .torrent
необходима регистрация
Или скачать с помощью
MediaGet
Статус:
Проверен
 
.torrent скачан: 0 раз
Хэш: 5f57c1c76cd289d03ff612aceca5d04241ab03b6
Размер: 1.71 ГБ (1 835 722 633 байт)
Стать Автором раздачи
 
 
Раздал: 100 ГБ
Скачал: 0 байт
Ратио: Seed.
Сообщения: 94007
Зарегистрирован: 09 апр 2015, 22:31


  • Похожие торренты
    Ответы
    Просмотры
    Последнее сообщение

Вернуться в Видео для мобильных устройств

Ресурс не предоставляет электронные версии произведений, а занимается лишь коллекционированием и каталогизацией ссылок, присылаемых и публикуемых на форуме нашими читателями. Если вы являетесь правообладателем какого-либо представленного материала и не желаете чтобы ссылка на него находилась в нашем каталоге, свяжитесь с нами и мы незамедлительно удалим её. Файлы для обмена на трекере предоставлены пользователями сайта, и администрация не несёт ответственности за их содержание. Просьба не заливать файлы, защищенные авторскими правами, а также файлы нелегального содержания!
cron