Звездный путь 2: Гнев Хана / Star Trek: The Wrath of Khan (1982) HDRip [H.264] [MP4|1024x428] SDI Media

 
 Статистика раздачи 
Размер: 1.62 ГБ   |  Зарегистрирован: 19 авг 2016, 18:58   |   .torrent скачан: 0 раз
Сидеров: 1  [ 0 байт/сек ]     Личеров: 0  [ 0 байт/сек ]  
  

Звездный путь 2: Гнев Хана / Star Trek: The Wrath of Khan (1982) HDRip [H.264] [MP4|1024x428] SDI Media

Сообщение explosiveone » 19 авг 2016, 18:58

Звездный путь 2: Гнев Хана / Star Trek: The Wrath of Khan (1982) HDRip SDI Media

«At the end of the universe lies the beginning of vengeance»
Производство: США, Paramount Pictures
Жанр: Фантастика, Боевик, Детектив, Приключения

Режиссер: Николас Мейер
Актеры: Уильям Шетнер, Леонард Нимой, ДеФорест Келли, Джеймс Дуэн, Уолтер Кениг, Джордж Такей, Нишелль Николс, Биби Беш, Мерритт Бутрик, Пол Уинфилд

Описание:
Кризис среднего возраста, случившийся у адмирала Кирка, казался ему вещью первостепенной важности. Но только до тех пор, пока он не получил сообщение с планеты Сеты Альфа 5 о том, что объявился его давний враг, жаждущий мщения.
Хан, генетически созданный сверхчеловек, с сильно развитыми интеллектом, физической силой и амбициями, уже встречался один раз команде «Энтерпрайза », но тогда его и его людей, решивших захватить корабль, остановили и в наказание оставили на первой попавшейся пригодной для жизни планете.
И вот теперь, спустя 15 лет, Хан смог выбраться из своего принудительного отшельничества. И цель у него только одна - уничтожить Кирка, которого он считает виновником всех своих несчастий. Давнее противостояние двух сильных личностей теперь развернется на фоне секретных экспериментов Федерации по терроформированию планет.
Но на этот раз Кирку придется победить, чего бы это ни стоило, и начинать ему придется с победы над собственным эго...


Рейтинг MPAA: PG (рекомендуется присутствие родителей)

Продолжительность: 01:53:02
Качество видео: HDRip
Перевод: Многоголосый закадровый - SDI Media
Язык субтитров: Русский, Английский
Вид субтитров: Вшитые

Видео: AVC/H.264 (Main@L3.0), 1024x428 (2.40:1), 1800 Кбит/сек
Аудио #1: AAC, 2 канала, 128 Кбит/сек - русский (многоголосый закадровый)
Аудио #2: AAC, 2 канала, 128 Кбит/сек - английский (оригинальный)
Код:
Код: Выделить всё
General
Complete name                            : C:\CREATE\264mod1\out\1\Star.Trek.(II).The.Wrath.of.Khan.1982.576p.HDRip.AAC.x264.mp4
Format                                   : MPEG-4
Format profile                           : Base Media / Version 2
Codec ID                                 : mp42 (mp42/isom)
File size                                : 1.62 GiB
Duration                                 : 1h 53mn
Overall bit rate mode                    : Variable
Overall bit rate                         : 2 056 Kbps
Movie name                               : Star Trek II: The Wrath of Khan
Performer                                : Nicholas Meyer
Director                                 : Nicholas Meyer
Actor                                    : William Shatner / Leonard Nimoy / DeForest Kelley / James Doohan / Ricardo Montalban / George Takei / Walter Koenig / Nichelle Nichols / Bibi Besch / Merritt Butrick
Producer                                 : Robert Sallin
Genre                                    : Sci-Fi & Fantasy
ContentType                              : Short Film
Description                              : It is the 23rd century. The Federation Starship U.S.S. EnterpriseTM is on routine training maneuvers and Admiral James T. Kirk (William Shatner) seems resigned to the fact that this inspection may well be the last space mission of his career.  But Khan is back. Aided by his exiled band of genetic supermen, Khan (Ricardo Montalban) - brilliant renegade of 20th century Earth - has raided Space Station Regula One, stolen a top secret device called Project Genesis, wrested control of another Federation starship, and now schemes to set a most deadly trap for his old enemy Kirk... with the threat of a universal Armageddon!
Recorded date                            : 1982-06-04
Encoded date                             : UTC 2016-08-19 13:13:30
Tagged date                              : UTC 2016-08-19 13:23:45
Copyright                                : © 1982 Paramount Pictures
Cover                                    : Yes
Rating                                   : None
LongDescription                          : It is the 23rd century. The Federation Starship U.S.S. EnterpriseTM is on routine training maneuvers and Admiral James T. Kirk (William Shatner) seems resigned to the fact that this inspection may well be the last space mission of his career.  But Khan is back. Aided by his exiled band of genetic supermen, Khan (Ricardo Montalban) - brilliant renegade of 20th century Earth - has raided Space Station Regula One, stolen a top secret device called Project Genesis, wrested control of another Federation starship, and now schemes to set a most deadly trap for his old enemy Kirk... with the threat of a universal Armageddon!
ContentRating                            : mpaa|PG|200|

Video
ID                                       : 1
Format                                   : AVC
Format/Info                              : Advanced Video Codec
Format profile                           : Main@L3
Format settings, CABAC                   : No
Format settings, ReFrames                : 3 frames
Codec ID                                 : avc1
Codec ID/Info                            : Advanced Video Coding
Duration                                 : 1h 53mn
Bit rate                                 : 1 800 Kbps
Width                                    : 1 024 pixels
Height                                   : 428 pixels
Display aspect ratio                     : 2.40:1
Frame rate mode                          : Variable
Frame rate                               : 23.976 (24000/1001) fps
Minimum frame rate                       : 23.810 fps
Maximum frame rate                       : 24.390 fps
Color space                              : YUV
Chroma subsampling                       : 4:2:0
Bit depth                                : 8 bits
Scan type                                : Progressive
Bits/(Pixel*Frame)                       : 0.171
Stream size                              : 1.41 GiB (87%)
Writing library                          : x264 core 148 r2705 3f5ed56
Encoding settings                        : cabac=0 / ref=3 / deblock=1:-1:-1 / analyse=0x1:0x131 / me=umh / subme=8 / psy=1 / psy_rd=1.00:0.10 / mixed_ref=1 / me_range=32 / chroma_me=1 / trellis=2 / 8x8dct=0 / cqm=0 / deadzone=21,11 / fast_pskip=0 / chroma_qp_offset=-3 / threads=12 / lookahead_threads=2 / sliced_threads=0 / nr=0 / decimate=0 / interlaced=0 / bluray_compat=0 / constrained_intra=0 / bframes=3 / b_pyramid=1 / b_adapt=2 / b_bias=0 / direct=3 / weightb=1 / open_gop=0 / weightp=2 / keyint=240 / keyint_min=23 / scenecut=40 / intra_refresh=0 / rc_lookahead=50 / rc=2pass / mbtree=1 / bitrate=1800 / ratetol=1.0 / qcomp=0.60 / qpmin=0 / qpmax=69 / qpstep=4 / cplxblur=20.0 / qblur=0.5 / vbv_maxrate=10000 / vbv_bufsize=10000 / nal_hrd=none / filler=0 / ip_ratio=1.40 / aq=1:0.90
Encoded date                             : UTC 2016-08-19 13:13:30
Tagged date                              : UTC 2016-08-19 13:19:12
Color range                              : Limited
Matrix coefficients                      : BT.709
Menus                                    : 6

Audio #1
ID                                       : 2
Format                                   : AAC
Format/Info                              : Advanced Audio Codec
Format profile                           : LC
Codec ID                                 : 40
Duration                                 : 1h 53mn
Source duration                          : 1h 53mn
Bit rate mode                            : Variable
Bit rate                                 : 128 Kbps
Maximum bit rate                         : 132 Kbps
Channel(s)                               : 2 channels
Channel positions                        : Front: L R
Sampling rate                            : 48.0 KHz
Frame rate                               : 46.875 fps (1024 spf)
Compression mode                         : Lossy
Stream size                              : 103 MiB (6%)
Source stream size                       : 103 MiB (6%)
Language                                 : Russian
Default                                  : Yes
Alternate group                          : 1
Encoded date                             : UTC 2016-08-19 13:13:30
Tagged date                              : UTC 2016-08-19 13:19:12

Audio #2
ID                                       : 3
Format                                   : AAC
Format/Info                              : Advanced Audio Codec
Format profile                           : LC
Codec ID                                 : 40
Duration                                 : 1h 53mn
Source duration                          : 1h 53mn
Bit rate mode                            : Variable
Bit rate                                 : 128 Kbps
Maximum bit rate                         : 133 Kbps
Channel(s)                               : 2 channels
Channel positions                        : Front: L R
Sampling rate                            : 48.0 KHz
Frame rate                               : 46.875 fps (1024 spf)
Compression mode                         : Lossy
Stream size                              : 103 MiB (6%)
Source stream size                       : 103 MiB (6%)
Language                                 : English
Default                                  : No
Alternate group                          : 1
Encoded date                             : UTC 2016-08-19 13:13:30
Tagged date                              : UTC 2016-08-19 13:19:12

Text #1
ID                                       : 4
Format                                   : Timed Text
Muxing mode                              : sbtl
Codec ID                                 : tx3g
Duration                                 : 1h 47mn
Bit rate mode                            : Variable
Bit rate                                 : 95 bps
Stream size                              : 74.8 KiB (0%)
Language                                 : Russian
Default                                  : Yes
Forced                                   : No
Alternate group                          : 2
Encoded date                             : UTC 2016-08-19 13:13:30
Tagged date                              : UTC 2016-08-19 13:19:13

Text #2
ID                                       : 5
Format                                   : Timed Text
Muxing mode                              : sbtl
Codec ID                                 : tx3g
Duration                                 : 1h 47mn
Bit rate mode                            : Variable
Bit rate                                 : 56 bps
Stream size                              : 44.4 KiB (0%)
Language                                 : English
Default                                  : No
Forced                                   : No
Alternate group                          : 2
Encoded date                             : UTC 2016-08-19 13:13:30
Tagged date                              : UTC 2016-08-19 13:19:13

Menu
ID                                       : 6
Codec ID                                 : text
Duration                                 : 1h 53mn
Language                                 : English
Encoded date                             : UTC 2016-08-19 13:19:13
Tagged date                              : UTC 2016-08-19 13:19:13
Menu For                                 : 1
00:00:00.000                             : Opening Credits
00:02:58.635                             : Kobayashi Maru
00:07:43.628                             : Antiques
00:11:41.282                             : Khan
00:25:26.775                             : The Enterprise
00:30:57.146                             : New Orders
00:41:32.198                             : Genesis
00:46:33.998                             : Revenge
00:56:07.405                             : Survivors
01:05:34.722                             : Buried Alive
01:10:53.332                             : Young and Old
01:15:57.678                             : By the Book
01:18:06.223                             : Battle Stations
01:23:15.281                             : Fire!
01:28:38.896                             : Warp Speed
01:35:19.463                             : Life and Death
01:47:33.405                             : End Credits
Bit rate mode                            : VBR

Скриншоты:


Время раздачи: 24/7 (круглосуточно) (до появления первых 3-5 скачавших)
 
Не забывайте говорить Спасибо. Не уходите с раздачи!   
Торрент: Зарегистрирован [19 авг 2016, 18:58] Для скачивания .torrent
необходима регистрация
Или скачать с помощью
MediaGet
Статус:
Проверен
 
.torrent скачан: 0 раз
Хэш: 1770d975dbecff23d5a7f7251039be7e06edc1af
Размер: 1.62 ГБ (1 742 713 628 байт)
Стать Автором раздачи
 
 
Раздал: 100 ГБ
Скачал: 0 байт
Ратио: Seed.
Сообщения: 94069
Зарегистрирован: 09 апр 2015, 22:31


  • Похожие торренты
    Ответы
    Просмотры
    Последнее сообщение

Вернуться в Видео для мобильных устройств

Ресурс не предоставляет электронные версии произведений, а занимается лишь коллекционированием и каталогизацией ссылок, присылаемых и публикуемых на форуме нашими читателями. Если вы являетесь правообладателем какого-либо представленного материала и не желаете чтобы ссылка на него находилась в нашем каталоге, свяжитесь с нами и мы незамедлительно удалим её. Файлы для обмена на трекере предоставлены пользователями сайта, и администрация не несёт ответственности за их содержание. Просьба не заливать файлы, защищенные авторскими правами, а также файлы нелегального содержания!
cron