Большой Барьерный риф с Дэвидом Аттенборо / BBC. Great Barrier Reef with David Attenborough (Майкл Дэвис / Michael Davis) (3 серия из 3) [2016, документальный, BDRip 1080p] VO (Ю. Онищенко) + Sub Rus, Eng + Original Eng

 
 Статистика раздачи 
Размер: 27.26 ГБ   |  Зарегистрирован: 19 авг 2016, 00:37   |   .torrent скачан: 2 раз
Сидеров: 25  [ 0 байт/сек ]     Личеров: 8  [ 0 байт/сек ]  
  

Большой Барьерный риф с Дэвидом Аттенборо / BBC. Great Barrier Reef with David Attenborough (Майкл Дэвис / Michael Davis) (3 серия из 3) [2016, документальный, BDRip 1080p] VO (Ю. Онищенко) + Sub Rus, Eng + Original Eng

Сообщение aLaVodka » 19 авг 2016, 00:37

Большой Барьерный риф с Дэвидом Аттенборо
Great Barrier Reef with David Attenborough
Год выпуска: 2016
Страна: Великобритания
Студия: BBC
Жанр: документальный
Продолжительность: 3 x ~00:59:00
Перевод: Одноголосый (закадровый) -
Субтитры: русские (Burn in) - 1 и 3 серии, русские (Ю. Онищенко), английские

Режиссёр: Майкл Дэвис / Michael Davis
Рассказчик: Дэвид Аттенборо / David Attenborough

Описание: В этом фильме Дэвид Аттенборо с помощью научно-исследовательского судна Алюсия расскрывает историю и тайны богатого биоразнообразием самого волшебного места на Земле - Большого Барьерного рифа.

Список серий:1. Строители - Builders
2. Гости рифа - Visitors
[*]3. Выживание - SurvivalДоп. информация:
Сведение русской дороги 1 серии -
Сведение русской дороги 2 и 3 серий - Burn in

Тип релиза: BDRip 1080p (NTb)
Контейнер: MKV
Видео: MPEG-4 AVC, 1920x1080 (16:9), 25.000 fps, 22.9 Mbps
Аудио: Russian AC3 5.1, 48KHz, 16-bit, 640 Kbps
Аудио 2: English AC3 5.1, 48KHz, 16-bit, 640 Kbps
Формат субтитров: softsub (SRT)
Главы: есть

Сэмпл
General
Unique ID : 242564403607199669444087757439058180742 (0xB67C347010434220A1AC98A71E05FA86)
Complete name : E:\ДокВидео\Большой Барьерный Риф с Дэвидом Аттенборо (2016, BDRip 1080p) Rutracker\1. Строители - Builders.mkv
Format : Matroska
Format version : Version 4 / Version 2
File size : 9.82 GiB
Duration : 58mn 11s
Overall bit rate : 24.2 Mbps
Movie name : Great Barrier Reef with David Attenborough (2016)
Encoded date : UTC 2016-08-18 20:45:46
Writing application : mkvmerge v9.3.1 ('Mask Machine') 64bit
Writing library : libebml v1.3.4 + libmatroska v1.4.5

Video
ID : 1
Format : AVC
Format/Info : Advanced Video Codec
Format profile : High@L4.1
Format settings, CABAC : Yes
Format settings, ReFrames : 4 frames
Codec ID : V_MPEG4/ISO/AVC
Duration : 58mn 10s
Bit rate : 22.9 Mbps
Width : 1 920 pixels
Height : 1 080 pixels
Display aspect ratio : 16:9
Frame rate mode : Constant
Frame rate : 25.000 fps
Color space : YUV
Chroma subsampling : 4:2:0
Bit depth : 8 bits
Scan type : Progressive
Bits/(Pixel*Frame) : 0.441
Stream size : 9.30 GiB (95%)
Writing library : x264 core 148 r2638kMod 7599210
Encoding settings : cabac=1 / ref=4 / deblock=1:-3:-3 / analyse=0x3:0x133 / me=umh / subme=10 / psy=1 / fade_compensate=0.00 / psy_rd=1.00:0.00 / mixed_ref=1 / me_range=48 / chroma_me=1 / trellis=2 / 8x8dct=1 / cqm=0 / deadzone=21,11 / fast_pskip=1 / chroma_qp_offset=-2 / threads=12 / lookahead_threads=2 / sliced_threads=0 / nr=0 / decimate=1 / interlaced=0 / bluray_compat=0 / constrained_intra=0 / fgo=0 / bframes=8 / b_pyramid=2 / b_adapt=2 / b_bias=0 / direct=3 / weightb=1 / open_gop=0 / weightp=2 / keyint=250 / keyint_min=25 / scenecut=40 / intra_refresh=0 / rc=crf / mbtree=0 / crf=16.7500 / qcomp=0.70 / qpmin=0 / qpmax=69 / qpstep=4 / ip_ratio=1.30 / pb_ratio=1.20 / aq=3:0.70
Language : English
Default : Yes
Forced : No

Audio #1
ID : 2
Format : AC-3
Format/Info : Audio Coding 3
Mode extension : CM (complete main)
Format settings, Endianness : Big
Codec ID : A_AC3
Duration : 58mn 11s
Bit rate mode : Constant
Bit rate : 640 Kbps
Channel(s) : 6 channels
Channel positions : Front: L C R, Side: L R, LFE
Sampling rate : 48.0 KHz
Frame rate : 31.250 fps (1536 spf)
Compression mode : Lossy
Stream size : 266 MiB (3%)
Title : Ю. Онищенко
Language : Russian
Default : Yes
Forced : No

Audio #2
ID : 3
Format : AC-3
Format/Info : Audio Coding 3
Mode extension : CM (complete main)
Format settings, Endianness : Big
Codec ID : A_AC3
Duration : 58mn 11s
Bit rate mode : Constant
Bit rate : 640 Kbps
Channel(s) : 6 channels
Channel positions : Front: L C R, Side: L R, LFE
Sampling rate : 48.0 KHz
Frame rate : 31.250 fps (1536 spf)
Compression mode : Lossy
Stream size : 266 MiB (3%)
Language : English
Default : No
Forced : No

Text #1
ID : 4
Format : UTF-8
Codec ID : S_TEXT/UTF8
Codec ID/Info : UTF-8 Plain Text
Duration : 57mn 49s
Bit rate : 128 bps
Count of elements : 693
Stream size : 54.3 KiB (0%)
Title : Burn in
Language : Russian
Default : Yes
Forced : No

Text #2
ID : 5
Format : UTF-8
Codec ID : S_TEXT/UTF8
Codec ID/Info : UTF-8 Plain Text
Duration : 57mn 35s
Bit rate : 140 bps
Count of elements : 710
Stream size : 59.5 KiB (0%)
Title : Ю. Онищенко
Language : Russian
Default : No
Forced : No

Text #3
ID : 6
Format : UTF-8
Codec ID : S_TEXT/UTF8
Codec ID/Info : UTF-8 Plain Text
Duration : 57mn 26s
Bit rate : 74 bps
Count of elements : 709
Stream size : 31.3 KiB (0%)
Language : English
Default : No
Forced : No

Menu
00:00:00.000 : en:00:00:00.000
00:07:03.400 : en:00:07:03.400
00:16:49.760 : en:00:16:49.760
00:26:45.880 : en:00:26:45.880
00:38:21.960 : en:00:38:21.960
00:49:31.960 : en:00:49:31.960

 
Не забывайте говорить Спасибо. Не уходите с раздачи!   
Торрент: Зарегистрирован [19 авг 2016, 00:37] Для скачивания .torrent
необходима регистрация
Или скачать с помощью
MediaGet
Статус:
Проверен
 
.torrent скачан: 2 раз
Хэш: 007fb67330726a42372b0cfeb5d034854a410747
Размер: 27.26 ГБ (29 269 821 172 байт)
Стать Автором раздачи
 
 
Раздал: 100 ГБ
Скачал: 0 байт
Ратио: Seed.
Сообщения: 186525
Зарегистрирован: 09 апр 2015, 20:00


  • Похожие торренты
    Ответы
    Просмотры
    Последнее сообщение

Вернуться в Флора и фауна (HD Video)

Кто сейчас на конференции

Сейчас эту тему просматривают: нет зарегистрированных пользователей и гости: 1

Ресурс не предоставляет электронные версии произведений, а занимается лишь коллекционированием и каталогизацией ссылок, присылаемых и публикуемых на форуме нашими читателями. Если вы являетесь правообладателем какого-либо представленного материала и не желаете чтобы ссылка на него находилась в нашем каталоге, свяжитесь с нами и мы незамедлительно удалим её. Файлы для обмена на трекере предоставлены пользователями сайта, и администрация не несёт ответственности за их содержание. Просьба не заливать файлы, защищенные авторскими правами, а также файлы нелегального содержания!