Император – основатель династии Мин / Zhu Yuan Zhang (2007) DVDRip [H.264] [MP4|720x432@768x432] (сезон 1, серии 1-2 из 2)

 
 Статистика раздачи 
Размер: 2.72 ГБ   |  Зарегистрирован: 17 авг 2016, 11:07   |   .torrent скачан: 0 раз
Сидеров: 1  [ 0 байт/сек ]     Личеров: 0  [ 0 байт/сек ]  
  

Император – основатель династии Мин / Zhu Yuan Zhang (2007) DVDRip [H.264] [MP4|720x432@768x432] (сезон 1, серии 1-2 из 2)

Сообщение explosiveone » 17 авг 2016, 11:07

Император – основатель династии Мин / Zhu Yuan Zhang (2007) DVDRip (сезон 1, серии 1-2 из 2)


Производство: Китай, Cnina International TV Co
Жанр: Драма, История

Режиссер: Фэн Сяонин
Актеры: Джан Ху, Ксуе Джу и другие

Описание:
В эпоху распрей и междоусобиц семья маленького мальчика была разорена и уничтожена. Став взрослым, волею судеб он, необученный военному делу, оказался в отряде воинов. Правители страны заметили храброго юношу, и с тех пор его судьбой стала война. Ступень за ступенью он поднимается к вершинам могущества, но этот путь не устлан розами. Мечтая создать новое, крепкое и справедливое государство, правитель, поднявшийся из низов, стремится окружить себя способными подчиненными, прекратить военные походы, построить крепости, сберечь людские и материальные ресурсы, а главное - вознести Закон на вершину и сделать всех людей одинаково равными перед ним. История провозглашает Чжу Юаньчжаня - императора-основателя династии Мин - одним из самых могущественных китайских правителей.


Возраст: 12+ (зрителям, достигшим 12 лет)

Продолжительность: ~01:40:00 серия
Качество видео: DVDRip
Перевод: Многоголосый закадровый
Вид субтитров: Отсутствуют

Видео: AVC/H.264 (Main@L3.0), 720x432@768x432 (16:9), 1800 Кбит/сек
Аудио #1: AAC, 2 канала, 128 Кбит/сек - русский (многоголосый закадровый)
Код:
Код: Выделить всё
General
Complete name               : C:\CREATE\out\Император-основатель династии Мин  (2007).576p.DVDRip.NNMclub\Zhu Yuan Zhang .S01E01.(2007).576p.DVDRip.AAC.mp4
Format                      : MPEG-4
Format profile              : Base Media
Codec ID                    : isom (isom/avc1)
File size                   : 1.37 GiB
Duration                    : 1 h 41 min
Overall bit rate mode       : Variable
Overall bit rate            : 1 932 kb/s
Collection                  : Император – основатель династии Мин
Season                      : 1
Album                       : Zhu Yuan Zhang
Album/Sorted by             : Zhu Yuan Zhang
Part                        : 1
Part/Position               : 1
Track name                  : Император – основатель династии Мин
Track name/Position         : 1
Performer                   : Zhu Yuan Zhang
Actor                       : Ху Цзюнь / Сюэ Джу
ContentType                 : TV Show
Description                 : В эпоху распрей и междуусобиц семья маленького мальчика была разорена и уничтожена. Став взрослым, волею судеб он, необученный военному делу, оказался в отряде воинов. Правители страны заметили храброго юношу, и с тех пор его судьбой стала война. Сту
Recorded date               : UTC 2007-01-01 08:00:00
Encoded date                : UTC 2016-08-17 06:40:31
Tagged date                 : UTC 2016-08-17 07:04:26
Cover                       : Yes
Title/Sort                  : Император – основатель династии Мин
LongDescription             : В эпоху распрей и междуусобиц семья маленького мальчика была разорена и уничтожена. Став взрослым, волею судеб он, необученный военному делу, оказался в отряде воинов. Правители страны заметили храброго юношу, и с тех пор его судьбой стала война. Ступень за ступенью он поднимается к вершинам могущества, но этот путь не устлан розами. Мечтая создать новое, крепкое и справедливое государство, правитель, поднявшийся из низов, стремится окружить себя способными подчиненными, прекратить военные походы, построить крепости, сберечь людские и материальные ресурсы, а главное - вознести Закон на вершину и сделать всех людей одинаково равными перед ним. История провозглашает Джу Юань Джаня - императора-основателя династии Мин - одним из самых могущественных китайских правителей.
Vendor                      : Zhu Yuan Zhang

Video
ID                          : 1
Format                      : AVC
Format/Info                 : Advanced Video Codec
Format profile              : Main@L3
Format settings, CABAC      : No
Format settings, ReFrames   : 4 frames
Codec ID                    : avc1
Codec ID/Info               : Advanced Video Coding
Duration                    : 1 h 41 min
Bit rate                    : 1 800 kb/s
Maximum bit rate            : 7 880 kb/s
Width                       : 720 pixels
Height                      : 432 pixels
Display aspect ratio        : 16:9
Frame rate mode             : Constant
Frame rate                  : 25.000 FPS
Color space                 : YUV
Chroma subsampling          : 4:2:0
Bit depth                   : 8 bits
Scan type                   : Progressive
Bits/(Pixel*Frame)          : 0.231
Stream size                 : 1.28 GiB (93%)
Writing library             : x264 core 148 r2705+54 9f484c1 t_mod_Custom [8-bit@all X86]
Encoding settings           : cabac=0 / ref=3 / deblock=1:-1:-1 / analyse=0x1:0x111 / me=umh / subme=8 / psy=1 / fade_compensate=0.00 / psy_rd=1.00:0.10 / mixed_ref=1 / me_range=32 / chroma_me=1 / trellis=2 / 8x8dct=0 / cqm=0 / deadzone=21,11 / fast_pskip=0 / chroma_qp_offset=-3 / threads=12 / lookahead_threads=2 / sliced_threads=0 / nr=0 / decimate=0 / interlaced=0 / bluray_compat=0 / constrained_intra=0 / fgo=0 / bframes=3 / b_pyramid=2 / b_adapt=2 / b_bias=0 / direct=3 / weightb=1 / open_gop=0 / weightp=2 / keyint=250 / keyint_min=25 / scenecut=40 / intra_refresh=0 / rc_lookahead=40 / rc=2pass / mbtree=1 / bitrate=1800 / ratetol=1.0 / qcomp=0.60 / qpmin=0:0:0 / qpmax=69:69:69 / qpstep=4 / cplxblur=20.0 / qblur=0.5 / vbv_maxrate=10000 / vbv_bufsize=10000 / nal_hrd=none / filler=0 / ip_ratio=1.40 / aq=3:0.90 / aq-sensitivity=10.00 / aq-factor=1.00:1.00:1.00 / aq2=0 / aq3=3:[0.50:0.50]:[0.50:0.50]:[0.50:0.50]:[0.50:0.50] / aq3-sensitivity=10.00 / aq3-factor=[1.00:1.00]:[1.00:1.00]:[1.00:1.00] / aq3-boundary=192:64:24
Language                    : English
Encoded date                : UTC 2016-08-17 06:40:31
Tagged date                 : UTC 2016-08-17 06:40:44
Color range                 : Limited
Color primaries             : BT.709
Transfer characteristics    : BT.709
Matrix coefficients         : BT.709
Menus                       : 3

Audio
ID                          : 2
Format                      : AAC
Format/Info                 : Advanced Audio Codec
Format profile              : LC
Codec ID                    : 40
Duration                    : 1 h 41 min
Bit rate mode               : Variable
Bit rate                    : 128 kb/s
Maximum bit rate            : 131 kb/s
Channel(s)                  : 2 channels
Channel positions           : Front: L R
Sampling rate               : 48.0 kHz
Frame rate                  : 46.875 FPS (1024 spf)
Compression mode            : Lossy
Stream size                 : 93.2 MiB (7%)
Language                    : Russian
Default                     : Yes
Alternate group             : 1
Encoded date                : UTC 2016-08-17 06:40:41
Tagged date                 : UTC 2016-08-17 06:40:44

Menu
ID                          : 3
Codec ID                    : text
Duration                    : 1 h 41 min
Encoded date                : UTC 2016-08-17 06:41:08
Tagged date                 : UTC 2016-08-17 06:41:08
Bit rate mode               : CBR
Menu For                    : 1
00:00:00.000                : Chapter 01
00:08:39.600                : Chapter 02
00:16:39.000                : Chapter 03
00:25:52.800                : Chapter 04
00:32:25.800                : Chapter 05
00:43:45.600                : Chapter 06
00:51:13.800                : Chapter 07
00:59:29.400                : Chapter 08
01:07:14.400                : Chapter 09
01:16:37.800                : Chapter 10
01:24:34.200                : Chapter 11
01:34:54.000                : Chapter 12
01:41:49.200                : Chapter 13

Скриншоты:


Сериал "Император – основатель династии Мин" на трекере NNM-Club

Время раздачи: 24/7 (круглосуточно) (до появления первых 3-5 скачавших)
 
Не забывайте говорить Спасибо. Не уходите с раздачи!   
Торрент: Зарегистрирован [17 авг 2016, 11:07] Для скачивания .torrent
необходима регистрация
Или скачать с помощью
MediaGet
Статус:
Проверен
 
.torrent скачан: 0 раз
Хэш: ce56116f5a877d76ffb1764d46fb1f6cf898a203
Размер: 2.72 ГБ (2 924 659 737 байт)
Стать Автором раздачи
 
 
Раздал: 100 ГБ
Скачал: 0 байт
Ратио: Seed.
Сообщения: 94048
Зарегистрирован: 09 апр 2015, 22:31


  • Похожие торренты
    Ответы
    Просмотры
    Последнее сообщение

Вернуться в Видео для мобильных устройств

Ресурс не предоставляет электронные версии произведений, а занимается лишь коллекционированием и каталогизацией ссылок, присылаемых и публикуемых на форуме нашими читателями. Если вы являетесь правообладателем какого-либо представленного материала и не желаете чтобы ссылка на него находилась в нашем каталоге, свяжитесь с нами и мы незамедлительно удалим её. Файлы для обмена на трекере предоставлены пользователями сайта, и администрация не несёт ответственности за их содержание. Просьба не заливать файлы, защищенные авторскими правами, а также файлы нелегального содержания!
cron