Книга джунглей / The Jungle Book (2016) HDRip [H.264] [MP4|720x556@1024x556]

 
 Статистика раздачи 
Размер: 1.56 ГБ   |  Зарегистрирован: 12 авг 2016, 21:55   |   .torrent скачан: 0 раз
Сидеров: 1  [ 0 байт/сек ]     Личеров: 0  [ 0 байт/сек ]  
  

Книга джунглей / The Jungle Book (2016) HDRip [H.264] [MP4|720x556@1024x556]

Сообщение explosiveone » 12 авг 2016, 21:55

Книга джунглей / The Jungle Book (2016) HDRip

«The legend will never be the same»
Производство: Великобритания, США / Walt Disney Pictures
Жанр: Фэнтези, Драма, Приключения, Семейный

Режиссер: Джон Фавро
Актеры: Скарлетт Йоханссон, Идрис Эльба, Билл Мюррей, Бен Кингсли, Кристофер Уокен, Джанкарло Эспозито, Лупита Нионго Эмджей, Энтони, Нил Сетхи, Брэндон Хеншель

Описание:
Непримиримая борьба с опасным и внушающим страх тигром Шерханом вынуждает Маугли покинуть волчью стаю и отправиться в захватывающее путешествие. На пути мальчика ждут удивительные открытия и запоминающиеся встречи с пантерой Багирой, медведем Балу, питоном Каа и другими обитателями дремучих джунглей.


Возраст: 12+ (зрителям, достигшим 12 лет)
Рейтинг MPAA: PG (рекомендуется присутствие родителей)

Продолжительность: 01:45:55
Качество видео: HDRip
Перевод: Дублированный
Вид субтитров: Вшитые отключаемые
Язык субтитров: Русский, Английский

Видео: AVC/H.264 (Main@L3.1), 720x556@1024x556 (2.40:1), 1850 Кбит/сек
Аудио #1: AAC, 2 канала, 128 Кбит/сек - русский (дублированный)
Аудио #2: AAC, 2 канала, 128 Кбит/сек - английский (оригинальный)
Код:
Код: Выделить всё
General
Complete name               : C:\CREATE\264mod1\out\The.Jungle.Book.2016.576p.HDRip.AAC.NNMclub.mp4
Format                      : MPEG-4
Format profile              : Base Media
Codec ID                    : isom (isom/avc1/iso2)
File size                   : 1.56 GiB
Duration                    : 1 h 46 min
Overall bit rate mode       : Variable
Overall bit rate            : 2 107 kb/s
Movie name                  : Книга джунглей (2016)
Performer                   : Jon Favreau
Director                    : Jon Favreau
Actor                       : Neel Sethi (Mowgli) / Bill Murray (Baloo (voice)) / Ben Kingsley (Bagheera (voice)) / Idris Elba (Shere Khan (voice)) / Scarlett Johansson (Kaa (voice)) / Christopher Walken (King Louie (voice)) / Lupita Nyong'o (Raksha (voice)) / Giancarlo Esposito (Akela (voice)) / Garry Shandling (Ikki (voice)) / Jon Favreau (Pygmy Hog (voice)) / Sam Raimi (Giant Squirrel (voice)) / Russell Peters (Rocky the Rhino (voice)) / Brighton Rose (Gray (voice)) / Emjay Anthony (Young Wolf #1 (voice)) / Max Favreau (Young Wolf #2 (voice)) / Chloe Hechter (Young Wolf #3 (voice)) / Asher Blinkoff (Young Wolf #4 (voice)) / Knox Gagnon (Young Wolf #5 (voice)) / Sasha Schreiber (Young Wolf #6 (voice)) / Kai Schreiber (Young Wolf #7 (voice)) / Madeleine Favreau (Raquel the Rhino (voice)) / Ritesh Rajan (Infant Mowgli's Father) / Kendrick Reyes (Infant Mowgli) / Sara Arrington (Neelgai Deer (voice)) / Artie Esposito (Animal Voices (voice)) / Allan Trautman (Animal Voices (voice)) / Dee Bradley Baker (Animal Voices (voice)) / Priyanka Chopra (Kaa (voice))
Screenplay by               : Phil Langone / Justin Marks
Producer                    : Peter M. Tobyansen / Molly Allen / Karen Gilchrist / Jon Favreau / Brigham Taylor
Genre                       : Drama
ContentType                 : Short Film
Description                 : Directed by Jon Favreau (Iron Man), based on Rudyard Kipling’s timeless stories and inspired by Disney’s classic animated film, The Jungle Book is an all-new live-action epic adventure about Mowgli (newcomer Neel Sethi), a man-cub who’s been raised b
Recorded date               : UTC 2016-04-15 07:00:00
Encoded date                : UTC 2016-08-08 13:04:33
Tagged date                 : UTC 2016-08-12 07:00:52
Cover                       : Yes
Comment                     : «The legend will never be the same»
Rating                      : None
Title/Sort                  : The Jungle Book
LongDescription             : Directed by Jon Favreau (Iron Man), based on Rudyard Kipling’s timeless stories and inspired by Disney’s classic animated film, The Jungle Book is an all-new live-action epic adventure about Mowgli (newcomer Neel Sethi), a man-cub who’s been raised by a family of wolves. But Mowgli finds he’s no longer welcome in the jungle when fearsome tiger Shere Khan (voice of Idris Elba), who bears the scars of Man, promises to eliminate what he sees as a threat. Urged to abandon the only home he’s ever known, Mowgli embarks on a captivating journey of self-discovery, guided by panther-turned-stern-mentor Bagheera (voice of Ben Kingsley) and the free-spirited bear Baloo (voice of Bill Murray). Along the way, Mowgli encounters jungle creatures who don’t exactly have his best interests at heart, including Kaa (voice of Scarlett Johansson), a python whose seductive voice and gaze hypnotizes the man-cub, and the smooth-talking King Louie (voice of Christopher Walken), who tries to coerce Mowgli into giving up the secret to the elusive and deadly red flower: fire.
ContentRating               : mpaa|G|100|

Video
ID                          : 1
Format                      : AVC
Format/Info                 : Advanced Video Codec
Format profile              : Main@L3
Format settings, CABAC      : No
Format settings, ReFrames   : 4 frames
Codec ID                    : avc1
Codec ID/Info               : Advanced Video Coding
Duration                    : 1 h 45 min
Bit rate                    : 1 850 kb/s
Maximum bit rate            : 14.3 Mb/s
Width                       : 720 pixels
Height                      : 556 pixels
Display aspect ratio        : 1.85:1
Frame rate mode             : Constant
Frame rate                  : 23.976 (24000/1001) FPS
Color space                 : YUV
Chroma subsampling          : 4:2:0
Bit depth                   : 8 bits
Scan type                   : Progressive
Bits/(Pixel*Frame)          : 0.193
Stream size                 : 1.37 GiB (88%)
Writing library             : x264 core 148 r2705+54 9f484c1 t_mod_Custom [8-bit@all X86_64]
Encoding settings           : cabac=0 / ref=4 / deblock=1:-3:-3 / analyse=0x1:0x131 / me=umh / subme=7 / psy=1 / fade_compensate=0.00 / psy_rd=1.00:0.15 / mixed_ref=1 / me_range=32 / chroma_me=1 / trellis=2 / 8x8dct=0 / cqm=0 / deadzone=21,11 / fast_pskip=0 / chroma_qp_offset=-3 / threads=12 / lookahead_threads=2 / sliced_threads=0 / nr=0 / decimate=0 / interlaced=0 / bluray_compat=0 / constrained_intra=0 / fgo=0 / bframes=3 / b_pyramid=2 / b_adapt=2 / b_bias=0 / direct=3 / weightb=1 / open_gop=0 / weightp=2 / keyint=240 / keyint_min=23 / scenecut=35 / intra_refresh=0 / rc_lookahead=40 / rc=2pass / mbtree=1 / bitrate=1850 / ratetol=1.0 / qcomp=0.60 / qpmin=0:0:0 / qpmax=69:69:69 / qpstep=4 / cplxblur=20.0 / qblur=0.5 / vbv_maxrate=10000 / vbv_bufsize=10000 / nal_hrd=none / filler=0 / ip_ratio=1.40 / aq=1:0.80 / aq-sensitivity=10.00 / aq-factor=1.00:1.00:1.00 / aq2=0 / aq3=0 / zones=1200,3600,b=2.0
Language                    : English
Encoded date                : UTC 2016-08-08 13:04:33
Tagged date                 : UTC 2016-08-08 13:04:50
Color range                 : Limited
Color primaries             : BT.709
Transfer characteristics    : BT.709
Matrix coefficients         : BT.709
Menus                       : 5

Audio #1
ID                          : 3
Format                      : AAC
Format/Info                 : Advanced Audio Codec
Format profile              : LC
Codec ID                    : 40
Duration                    : 1 h 45 min
Bit rate mode               : Variable
Bit rate                    : 128 kb/s
Maximum bit rate            : 132 kb/s
Channel(s)                  : 2 channels
Channel positions           : Front: L R
Sampling rate               : 48.0 kHz
Frame rate                  : 46.875 FPS (1024 spf)
Compression mode            : Lossy
Stream size                 : 97.0 MiB (6%)
Language                    : English
Default                     : Yes
Alternate group             : 1
Encoded date                : UTC 2016-08-08 13:04:47
Tagged date                 : UTC 2016-08-08 13:04:50

Audio #2
ID                          : 6
Format                      : AAC
Format/Info                 : Advanced Audio Codec
Format profile              : LC
Codec ID                    : 40
Duration                    : 1 h 46 min
Bit rate mode               : Variable
Bit rate                    : 128 kb/s
Maximum bit rate            : 132 kb/s
Channel(s)                  : 2 channels
Channel positions           : Front: L R
Sampling rate               : 48.0 kHz
Frame rate                  : 46.875 FPS (1024 spf)
Compression mode            : Lossy
Stream size                 : 97.2 MiB (6%)
Language                    : Russian
Default                     : No
Alternate group             : 1
Encoded date                : UTC 2016-08-12 06:54:19
Tagged date                 : UTC 2016-08-12 06:55:29

Text #1
ID                          : 7
Format                      : Timed Text
Muxing mode                 : sbtl
Codec ID                    : tx3g
Duration                    : 1 h 45 min
Bit rate mode               : Variable
Bit rate                    : 65 b/s
Stream size                 : 50.1 KiB (0%)
Language                    : Russian
Default                     : Yes
Forced                      : No
Alternate group             : 2
Encoded date                : UTC 2016-08-12 07:00:43
Tagged date                 : UTC 2016-08-12 07:00:43

Text #2
ID                          : 8
Format                      : Timed Text
Muxing mode                 : sbtl
Codec ID                    : tx3g
Duration                    : 1 h 45 min
Bit rate mode               : Variable
Bit rate                    : 0 b/s
Stream size                 : 152 Bytes (0%)
Language                    : Russian
Default                     : No
Forced                      : No
Alternate group             : 2
Encoded date                : UTC 2016-08-12 07:00:43
Tagged date                 : UTC 2016-08-12 07:00:43

Text #3
ID                          : 9
Format                      : Timed Text
Muxing mode                 : sbtl
Codec ID                    : tx3g
Duration                    : 1 h 45 min
Bit rate mode               : Variable
Bit rate                    : 48 b/s
Stream size                 : 36.8 KiB (0%)
Language                    : English
Default                     : No
Forced                      : No
Alternate group             : 2
Encoded date                : UTC 2016-08-12 07:00:43
Tagged date                 : UTC 2016-08-12 07:00:43

Menu
ID                          : 5
Codec ID                    : text
Duration                    : 1 h 45 min
Encoded date                : UTC 2016-08-08 13:05:23
Tagged date                 : UTC 2016-08-08 13:05:23
Bit rate mode               : CBR
Menu For                    : 1
00:00:00.000                : 00:00:00.000
00:00:48.215                : 00:00:48.215
00:05:15.315                : 00:05:15.315
00:09:02.459                : 00:09:02.459
00:12:42.178                : 00:12:42.178
00:16:34.452                : 00:16:34.452
00:21:20.029                : 00:21:20.029
00:27:15.133                : 00:27:15.133
00:35:04.144                : 00:35:04.144
00:43:21.724                : 00:43:21.724
00:48:05.132                : 00:48:05.132
00:53:29.248                : 00:53:29.248
00:58:03.271                : 00:58:03.271
01:05:46.442                : 01:05:46.442
01:10:35.523                : 01:10:35.523
01:17:01.325                : 01:17:01.325
01:20:48.927                : 01:20:48.927
01:24:46.540                : 01:24:46.540
01:30:32.969                : 01:30:32.969
01:35:53.206                : 01:35:53.206

Скриншоты:


Время раздачи: 24/7 (круглосуточно) (до появления первых 3-5 скачавших)
 
Не забывайте говорить Спасибо. Не уходите с раздачи!   
Торрент: Зарегистрирован [12 авг 2016, 21:55] Для скачивания .torrent
необходима регистрация
Или скачать с помощью
MediaGet
Статус:
Проверен
 
.torrent скачан: 0 раз
Хэш: 6d983788c4b7cc31019a1fd279b0dc184613ce25
Размер: 1.56 ГБ (1 677 931 265 байт)
Стать Автором раздачи
 
 
Раздал: 100 ГБ
Скачал: 0 байт
Ратио: Seed.
Сообщения: 94068
Зарегистрирован: 09 апр 2015, 22:31


  • Похожие торренты
    Ответы
    Просмотры
    Последнее сообщение

Вернуться в Видео для мобильных устройств

Ресурс не предоставляет электронные версии произведений, а занимается лишь коллекционированием и каталогизацией ссылок, присылаемых и публикуемых на форуме нашими читателями. Если вы являетесь правообладателем какого-либо представленного материала и не желаете чтобы ссылка на него находилась в нашем каталоге, свяжитесь с нами и мы незамедлительно удалим её. Файлы для обмена на трекере предоставлены пользователями сайта, и администрация не несёт ответственности за их содержание. Просьба не заливать файлы, защищенные авторскими правами, а также файлы нелегального содержания!
cron