А.М. Романов. Лекция «Как построить планету, пригодную для проживания» (2014) WEBRip [H.264] [MP4|1920х1080]

 
 Статистика раздачи 
Размер: 1.53 ГБ   |  Зарегистрирован: 12 авг 2016, 19:53   |   .torrent скачан: 0 раз
Сидеров: 1  [ 0 байт/сек ]     Личеров: 0  [ 0 байт/сек ]  
  

А.М. Романов. Лекция «Как построить планету, пригодную для проживания» (2014) WEBRip [H.264] [MP4|1920х1080]

Сообщение explosiveone » 12 авг 2016, 19:53

А.М. Романов. Лекция «Как построить планету, пригодную для проживания» (2014) WEBRip

Жанр: Лекция, Документальный

Ведущий: А.М. Романов

Описание:
Как построить планету, пригодную для проживания?
Отвечая на этот вопрос, Андрей Михайлович очень ярко и подробно рассказал об образовании звезд и планетных систем во Вселенной. Мы узнали, какие химические элементы необходимы для строительства планетных систем, где и как они образуются во Вселенной. Как устроена планета Земля и чем ее строение отличается от других планет Солнечной системы.
Одиноки ли мы во Вселенной? Этот вопрос волновал человечество на протяжении многих столетий. Еще древнегреческие философы верили в возможность существования разумной жизни вне Земли. Можем ли мы ее найти? Какие формы может иметь внеземная жизнь? Можно ли создать планету, пригодную для жизни?

В Большом Звездном зале Московского планетария выступил кандидат физико-математических наук, главный специалист отделения физических наук Президиума РАН, секретарь Ученого совета Планетария Андрей Михайлович Романов.

Продолжительность: 01:38:17
Качество видео: WEBRip

Видео: AVC/H.264, 1920х1080, ~2093 Кбит/сек
Аудио: AAC, 2 ch, 126 Кбит/сек, VBR
Код:
Код: Выделить всё
ормат                                   : MPEG-4
Профиль формата                          : Base Media
Идентификатор кодека                     : isom (isom/iso2/avc1/mp41)
Размер файла                             : 1,53 Гбайт
Продолжительность                        : 1 ч. 38 м.
Режим общего битрейта                    : Переменный
Общий поток                              : 2221 Кбит/сек
Дата кодирования                         : UTC 2014-02-06 06:16:00
Дата пометки                             : UTC 2014-02-06 06:16:00

Видео
Идентификатор                            : 1
Формат                                   : AVC
Формат/Информация                        : Advanced Video Codec
Профиль формата                          : High@L4
Параметр CABAC формата                   : Да
Параметр ReFrames формата                : 3 кадра
Идентификатор кодека                     : avc1
Идентификатор кодека/Информация          : Advanced Video Coding
Продолжительность                        : 1 ч. 38 м.
Duration_LastFrame                       : -39 мс.
Битрейт                                  : 2093 Кбит/сек
Ширина                                   : 1920 пикселей
Высота                                   : 1080 пикселей
Соотношение сторон                       : 16:9
Режим частоты кадров                     : Постоянный
Частота кадров                           : 25,000 кадров/сек
Цветовое пространство                    : YUV
Субдискретизация насыщенности            : 4:2:0
Битовая глубина                          : 8 бит
Тип развёртки                            : Прогрессивная
Бит/(Пиксели*Кадры)                      : 0.040
Размер потока                            : 1,44 Гбайт (94%)
Дата кодирования                         : UTC 2014-02-06 06:16:00
Дата пометки                             : UTC 2014-02-06 06:16:00

Аудио
Идентификатор                            : 2
Формат                                   : AAC
Формат/Информация                        : Advanced Audio Codec
Профиль формата                          : LC
Идентификатор кодека                     : 40
Продолжительность                        : 1 ч. 38 м.
Вид битрейта                             : Переменный
Битрейт                                  : 126 Кбит/сек
Каналы                                   : 2 канала
Расположение каналов                     : Front: L R
Частота                                  : 44,1 КГц
Частота кадров                           : 43,066 кадра/сек (1024 spf)
Метод сжатия                             : С потерями
Размер потока                            : 88,3 Мбайт (6%)
Default                                  : Да

Скриншоты:



Время раздачи: по возможности (до появления первых 3-5 скачавших)
 
Не забывайте говорить Спасибо. Не уходите с раздачи!   
Торрент: Зарегистрирован [12 авг 2016, 19:53] Для скачивания .torrent
необходима регистрация
Или скачать с помощью
MediaGet
Статус:
Проверен
 
.torrent скачан: 0 раз
Хэш: a22f55253d93f0399c09304d423f42a47e6ea359
Размер: 1.53 ГБ (1 637 594 908 байт)
Стать Автором раздачи
 
 
Раздал: 100 ГБ
Скачал: 0 байт
Ратио: Seed.
Сообщения: 94048
Зарегистрирован: 09 апр 2015, 22:31


  • Похожие торренты
    Ответы
    Просмотры
    Последнее сообщение

Вернуться в Видео для мобильных устройств

Ресурс не предоставляет электронные версии произведений, а занимается лишь коллекционированием и каталогизацией ссылок, присылаемых и публикуемых на форуме нашими читателями. Если вы являетесь правообладателем какого-либо представленного материала и не желаете чтобы ссылка на него находилась в нашем каталоге, свяжитесь с нами и мы незамедлительно удалим её. Файлы для обмена на трекере предоставлены пользователями сайта, и администрация не несёт ответственности за их содержание. Просьба не заливать файлы, защищенные авторскими правами, а также файлы нелегального содержания!
cron