Роман с камнем и Жемчужина Нила. Дилогия / Romancing the Stone & The Jewel of the Nile. Dilogy (1984/1985) HDRip [MP4|720x436@1024x436]

 
 Статистика раздачи 
Размер: 2.71 ГБ   |  Зарегистрирован: 11 авг 2016, 21:38   |   .torrent скачан: 0 раз
Сидеров: 1  [ 0 байт/сек ]     Личеров: 0  [ 0 байт/сек ]  
  

Роман с камнем и Жемчужина Нила. Дилогия / Romancing the Stone & The Jewel of the Nile. Dilogy (1984/1985) HDRip [MP4|720x436@1024x436]

Сообщение explosiveone » 11 авг 2016, 21:38

Роман с камнем и Жемчужина Нила. Дилогия / Romancing the Stone & The Jewel of the Nile. Dilogy (1984/1985) HDRip


Производство:
США, 20th Century Fox Film Corporation
Жанр: Приключения, Боевик, Комедия

Режиссер Роберт Земекис, Льюис Тига
Актеры: Майкл Дуглас, Кэтлин Тернер, Дени ДеВито, Зак Норман, Альфонсо Арау, Мануэль Охеда, Спирос Фокас, Эвнер Айзенберг, Пол Дэвид Маджид

Описание:
В первой части, Джоан Уайлдер, автор популярных женских романов, находит в своем почтовом ящике пакет, присланный из Колумбии ее сестрой. Телефонный звонок подтверждает самые страшные опасения — сестра похищена, и похитители требуют вернуть пакет.
Во второй части, Джэк и Джоан живут спокойной, размеренной жизнью богатых бездельников. У них есть все, что могут позволить деньги: яхта, виллы, прислуга. Но им скучно. Скучно друг с другом, и этим обществом. Что бы развлечь себя, Джоан принимает приглашение арабского шейха посетить его восточную резиденцию. Но сказка обернулась кошмаром

Продолжительность: 01:45:46 | 01:45:55
Перевод: Многоголосый закадровый
Вид субтитров: Отсутствуют
Качество видео: HDRip

Видео: AVC/H.264 (Main@L3.1), 720x436@1024x436 (1.85:1), 1700 Кбит/сек
Аудио #1: AAC, 2 канала, 128 Кбит/сек - русский
Роман с камнем / Romancing the Stone (1984) HDRip

«She's a girl from the big city. He's a reckless soldier of fortune. For a fabulous treasure, they share an adventure no one could imagine... or survive»
Производство: США, Мексика, 20th Century Fox Film Corporation
Жанр: Приключения, Боевик, Комедия

Режиссер: Роберт Земекис, Льюис Тига
Актеры: Майкл Дуглас, Кэтлин Тернер, Дени ДеВито, Зак Норман, Альфонсо Арау, Мануэль Охеда

Опиcание:
Джоан Уайлдер, автор популярных женских романов, находит в своем почтовом ящике пакет, присланный из Колумбии ее сестрой. Телефонный звонок подтверждает самые страшные опасения — сестра похищена, и похитители требуют вернуть пакет.
Забыв обо всем на свете, Джоан летит на помощь сестре и теряется в первые часы после прилета. Ее пытаются убить, и только вмешательство Джека Колтона, американского наемника, спасет девушку от гибели.
Вместе их ждут экстремальные приключения в джунглях, поиск сокровищ и, конечно, романтическая любовная история.


Рейтинг MPAA: PG (рекомендуется присутствие родителей)

Продолжительноcть: 01:45:46
Качество видео: HDRip
Перевод: Многоголосый закадровый
Вид субтитров: Отсутствуют

Видео: AVC/H.264 (Main@L3.1), 720x432@1024x432 (2.40:1), 1700 Кбит/сек
Аудио #1: AAC, 2 канала, 128 Кбит/сек - русский
Код:
Код: Выделить всё
General
Complete name               : C:\CREATE\Romancing.the.Stone&The.Jewel.of.the.Nile(1984-1985).576p.HDRip.NNMclub\Romancing.The.Stone.1984.576p.HDRip.AAC.NNMclub.mp4
Format                      : MPEG-4
Format profile              : Base Media
Codec ID                    : isom (isom/avc1)
File size                   : 1.35 GiB
Duration                    : 1 h 45 min
Overall bit rate mode       : Variable
Overall bit rate            : 1 833 kb/s
Movie name                  : Роман с камнем
Performer                   : Robert Zemeckis
Director                    : Robert Zemeckis
Actor                       : Michael Douglas (Jack T. Colton) / Kathleen Turner (Joan Wilder) / Danny DeVito (Ralph) / Zack Norman (Ira) / Alfonso Aráu (Juan) / Mary Ellen Trainor (Elaine) / Holland Taylor (Gloria) / Eve Smith (Mrs. Irwin) / Joe Nesnow (Super)
Screenplay by               : Diane Thomas
Producer                    : Treva Silverman / Jack Brodsky / Michael Douglas / Joel Douglas
Genre                       : Comedy
ContentType                 : Short Film
Description                 : Джоан Уайлдер, автор популярных женских романов, находит в своем почтовом ящике пакет, присланный из Колумбии ее сестрой. Телефонный звонок подтверждает самые страшные опасения - сестра похищена, и похитители требуют вернуть пакет.
Recorded date               : UTC 1984-03-30 08:00:00
Encoded date                : UTC 2016-08-08 19:36:35
Tagged date                 : UTC 2016-08-08 20:34:28
Cover                       : Yes
Rating                      : None
Title/Sort                  : Romancing the Stone
LongDescription             : Джоан Уайлдер, автор популярных женских романов, находит в своем почтовом ящике пакет, присланный из Колумбии ее сестрой. Телефонный звонок подтверждает самые страшные опасения - сестра похищена, и похитители требуют вернуть пакет. / Забыв обо всем на свете, Джоан летит на помощь сестре и теряется в первые часы после прилета. Ее пытаются убить, и только вмешательство Джека Колтона, американского наемника, спасет девушку от гибели. / Вместе их ждут экстремальные приключения в джунглях, поиск сокровищ и, конечно, романтическая любовная история.
ContentRating               : mpaa|G|100|

Video
ID                          : 1
Format                      : AVC
Format/Info                 : Advanced Video Codec
Format profile              :
Format settings, CABAC      : No
Format settings, ReFrames   : 4 frames
Codec ID                    : avc1
Codec ID/Info               : Advanced Video Coding
Duration                    : 1 h 45 min
Bit rate                    : 1 700 kb/s
Maximum bit rate            : 8 374 kb/s
Width                       : 720 pixels
Height                      : 432 pixels
Display aspect ratio        : 2.40:1
Frame rate mode             : Constant
Frame rate                  : 23.976 (24000/1001) FPS
Color space                 : YUV
Chroma subsampling          : 4:2:0
Bit depth                   : 8 bits
Scan type                   : Progressive
Bits/(Pixel*Frame)          : 0.228
Stream size                 : 1.26 GiB (93%)
Writing library             : x264 core 148 r2705+54 9f484c1 t_mod_Custom [8-bit@all X86_64]
Encoding settings           : cabac=0 / ref=3 / deblock=1:-2:-2 / analyse=0x1:0x131 / me=umh / subme=7 / psy=1 / fade_compensate=0.00 / psy_rd=1.00:0.20 / mixed_ref=1 / me_range=32 / chroma_me=1 / trellis=2 / 8x8dct=0 / cqm=0 / deadzone=21,11 / fast_pskip=0 / chroma_qp_offset=-3 / threads=13 / lookahead_threads=2 / sliced_threads=0 / nr=0 / decimate=0 / interlaced=0 / bluray_compat=0 / constrained_intra=0 / fgo=0 / bframes=3 / b_pyramid=2 / b_adapt=2 / b_bias=0 / direct=3 / weightb=1 / open_gop=0 / weightp=2 / keyint=240 / keyint_min=23 / scenecut=40 / intra_refresh=0 / rc_lookahead=40 / rc=2pass / mbtree=1 / bitrate=1700 / ratetol=1.0 / qcomp=0.70 / qpmin=0:0:0 / qpmax=69:69:69 / qpstep=4 / cplxblur=20.0 / qblur=0.5 / vbv_maxrate=10000 / vbv_bufsize=10000 / nal_hrd=none / filler=0 / ip_ratio=1.20 / aq=3:0.60 / aq-sensitivity=10.00 / aq-factor=1.00:1.00:1.00 / aq2=0 / aq3=3:[0.50:0.50]:[0.50:0.50]:[0.50:0.50]:[0.50:0.50] / aq3-sensitivity=10.00 / aq3-factor=[1.00:1.00]:[1.00:1.00]:[1.00:1.00] / aq3-boundary=205:56:9
Language                    : English
Encoded date                : UTC 2016-08-08 19:36:35
Tagged date                 : UTC 2016-08-08 19:37:11
Color range                 : Limited
Matrix coefficients         : BT.709

Audio
ID                          : 2
Format                      : AAC
Format/Info                 : Advanced Audio Codec
Format profile              : LC
Codec ID                    : 40
Duration                    : 1 h 45 min
Bit rate mode               : Variable
Bit rate                    : 128 kb/s
Maximum bit rate            : 133 kb/s
Channel(s)                  : 2 channels
Channel positions           : Front: L R
Sampling rate               : 48.0 kHz
Frame rate                  : 46.875 FPS (1024 spf)
Compression mode            : Lossy
Stream size                 : 96.8 MiB (7%)
Language                    : Russian
Default                     : Yes
Alternate group             : 1
Encoded date                : UTC 2016-08-08 19:37:02
Tagged date                 : UTC 2016-08-08 19:37:11

Скриншоты:


Жемчужина Нила / The Jewel of the Nile (1985) HDRip

«They're back again...and romancing a brand new stone»
#77Производство: США, 20th Century Fox Film Corporation
Жанр: Приключения, Боевик, Комедия

Режиccер: Льюис Тига
Aктеры: Майкл Дуглас, Кэтлин Тернер, Дэнни Де Вито, Спирос Фокас, Эвнер Айзенберг, Пол Дэвид Маджид

Опиcание:
Герои предыдущей части Джэк и Джоан живут спокойной, размеренной жизнью богатых бездельников. У них есть все, что могут позволить деньги: яхта, виллы, прислуга. Но им скучно.
Скучно друг с другом, и этим обществом. Что бы развлечь себя, Джоан принимает приглашение арабского шейха посетить его восточную резиденцию. Но сказка обернулась кошмаром, арабский красавец похищает Джоан, и требует выкуп - «жемчужину».
Джэк, заручившись поддержкой, своего нового партнера Ральфа, принимает непростое решение, спасти Джоан. Но есть одно осложнение, Джэку хочет отомстить старый напарник.


Рейтинг MPAA: PG (рекомендуется присутствие родителей)

Продoлжительность: 01:45:55
Качество видео: HDRip
Перевод: Многоголосый закадровый
Вид субтитров: Отсутствуют

Видео: AVC/H.264 (Main@L3.1), 720x436@1024x436 (2.35:1), 1700 Кбит/сек
Аудио #1: AAC, 2 канала, 128 Кбит/сек - русский (многоголосый закадровый)
Код:
Код: Выделить всё
General
Complete name               : C:\CREATE\Romancing.the.Stone&The.Jewel.of.the.Nile(1984-1985).576p.HDRip.NNMclub\The.Jewel.Of.The.Nile.1985.576p.HDRip.AAC.NNMclub.mp4
Format                      : MPEG-4
Format profile              : Base Media
Codec ID                    : isom (isom/avc1)
File size                   : 1.36 GiB
Duration                    : 1 h 45 min
Overall bit rate mode       : Variable
Overall bit rate            : 1 837 kb/s
Movie name                  : Жемчужина Нила
Performer                   : Lewis Teague
Director                    : Lewis Teague
Actor                       : Michael Douglas (Jack Colton) / Kathleen Turner (Joan Wilder) / Danny DeVito (Ralph) / Spiros Focás (Omar) / Avner Eisenberg (Jewel) / Paul David Magid (Tarak) / Howard Jay Patterson (Barak) / Randall Edwin Nelson (Karak) / Samuel Ross Williams (Arak) / Timothy Daniel Furst (Sarak) / Hamid Fillali (Rachid) / Holland Taylor (Gloria) / Guy Cuevas (Le Vasseur) / Peter DePalma (Missionary) / Mark Daly Richards (Pirate)
Screenplay by               : Mark Rosenthal / Lawrence Konner
Producer                    : Michael Douglas
Genre                       : Comedy
ContentType                 : Short Film
Description                 : Герои предыдущей части Джэк и Джоан живут спокойной, размеренной жизнью богатых бездельников. У них есть все, что могут позволить деньги: яхта, виллы, прислуга. Но им скучно.Скучно друг с другом, и этим обществом.
Recorded date               : 1985-12-04
Encoded date                : UTC 2016-08-08 19:39:06
Tagged date                 : UTC 2016-08-08 20:34:44
Cover                       : Yes
Rating                      : None
Title/Sort                  : The Jewel of the Nile
LongDescription             : Герои предыдущей части Джэк и Джоан живут спокойной, размеренной жизнью богатых бездельников. У них есть все, что могут позволить деньги: яхта, виллы, прислуга. Но им скучно.Скучно друг с другом, и этим обществом. Что бы развлечь себя, Джоан принимает приглашение арабского шейха посетить его восточную резиденцию. Но сказка обернулась кошмаром, арабский красавец похищает Джоан, и требует выкуп — «жемчужину».Джэк, заручившись поддержкой, своего нового партнера Ральфа, принимает непростое решение, спасти Джоан. Но есть одно осложнение, Джэку хочет отомстить старый напарник.
ContentRating               : mpaa|PG|200|

Video
ID                          : 1
Format                      : AVC
Format/Info                 : Advanced Video Codec
Format profile              :
Format settings, CABAC      : No
Format settings, ReFrames   : 4 frames
Codec ID                    : avc1
Codec ID/Info               : Advanced Video Coding
Duration                    : 1 h 45 min
Bit rate                    : 1 700 kb/s
Maximum bit rate            : 7 539 kb/s
Width                       : 720 pixels
Height                      : 436 pixels
Display aspect ratio        : 2.35:1
Frame rate mode             : Constant
Frame rate                  : 23.976 (24000/1001) FPS
Color space                 : YUV
Chroma subsampling          : 4:2:0
Bit depth                   : 8 bits
Scan type                   : Progressive
Bits/(Pixel*Frame)          : 0.226
Stream size                 : 1.26 GiB (93%)
Writing library             : x264 core 148 r2705+54 9f484c1 t_mod_Custom [8-bit@all X86_64]
Encoding settings           : cabac=0 / ref=3 / deblock=1:-2:-2 / analyse=0x1:0x131 / me=umh / subme=7 / psy=1 / fade_compensate=0.00 / psy_rd=1.00:0.20 / mixed_ref=1 / me_range=32 / chroma_me=1 / trellis=2 / 8x8dct=0 / cqm=0 / deadzone=21,11 / fast_pskip=0 / chroma_qp_offset=-3 / threads=14 / lookahead_threads=2 / sliced_threads=0 / nr=0 / decimate=0 / interlaced=0 / bluray_compat=0 / constrained_intra=0 / fgo=0 / bframes=3 / b_pyramid=2 / b_adapt=2 / b_bias=0 / direct=3 / weightb=1 / open_gop=0 / weightp=2 / keyint=240 / keyint_min=23 / scenecut=40 / intra_refresh=0 / rc_lookahead=40 / rc=2pass / mbtree=1 / bitrate=1700 / ratetol=1.0 / qcomp=0.70 / qpmin=0:0:0 / qpmax=69:69:69 / qpstep=4 / cplxblur=20.0 / qblur=0.5 / vbv_maxrate=10000 / vbv_bufsize=10000 / nal_hrd=none / filler=0 / ip_ratio=1.20 / aq=3:0.60 / aq-sensitivity=10.00 / aq-factor=1.00:1.00:1.00 / aq2=0 / aq3=3:[0.40:0.40]:[0.50:0.50]:[0.50:0.50]:[0.50:0.50] / aq3-sensitivity=10.00 / aq3-factor=[1.00:1.00]:[1.00:1.00]:[1.00:1.00] / aq3-boundary=205:56:9 / zones=6912,7404,fgo=5/6912,7404,b=1.6
Language                    : English
Encoded date                : UTC 2016-08-08 19:39:06
Tagged date                 : UTC 2016-08-08 19:39:51
Color range                 : Limited
Matrix coefficients         : BT.709

Audio
ID                          : 2
Format                      : AAC
Format/Info                 : Advanced Audio Codec
Format profile              : LC
Codec ID                    : 40
Duration                    : 1 h 45 min
Bit rate mode               : Variable
Bit rate                    : 128 kb/s
Maximum bit rate            : 132 kb/s
Channel(s)                  : 2 channels
Channel positions           : Front: L R
Sampling rate               : 48.0 kHz
Frame rate                  : 46.875 FPS (1024 spf)
Compression mode            : Lossy
Stream size                 : 97.0 MiB (7%)
Language                    : Russian
Default                     : Yes
Alternate group             : 1
Encoded date                : UTC 2016-08-08 19:39:39
Tagged date                 : UTC 2016-08-08 19:39:51

Скриншоты:


Скриншоты



Время раздачи: 24/7 (круглосуточно) (до появления первых 3-5 скачавших)
 
Не забывайте говорить Спасибо. Не уходите с раздачи!   
Торрент: Зарегистрирован [11 авг 2016, 21:38] Для скачивания .torrent
необходима регистрация
Или скачать с помощью
MediaGet
Статус:
Проверен
 
.torrent скачан: 0 раз
Хэш: a2a3724b73f7c131869610e28a2cbda9b3115832
Размер: 2.71 ГБ (2 913 055 183 байт)
Стать Автором раздачи
 
 
Раздал: 100 ГБ
Скачал: 0 байт
Ратио: Seed.
Сообщения: 94065
Зарегистрирован: 09 апр 2015, 22:31


  • Похожие торренты
    Ответы
    Просмотры
    Последнее сообщение

Вернуться в Видео для мобильных устройств

Ресурс не предоставляет электронные версии произведений, а занимается лишь коллекционированием и каталогизацией ссылок, присылаемых и публикуемых на форуме нашими читателями. Если вы являетесь правообладателем какого-либо представленного материала и не желаете чтобы ссылка на него находилась в нашем каталоге, свяжитесь с нами и мы незамедлительно удалим её. Файлы для обмена на трекере предоставлены пользователями сайта, и администрация не несёт ответственности за их содержание. Просьба не заливать файлы, защищенные авторскими правами, а также файлы нелегального содержания!
cron