Славные парни / The Nice Guys (2016) HDRip [H.264] [MP4|1024x428]

 
 Статистика раздачи 
Размер: 1.68 ГБ   |  Зарегистрирован: 11 авг 2016, 19:44   |   .torrent скачан: 1 раз
Сидеров: 1  [ 0 байт/сек ]     Личеров: 5  [ 0 байт/сек ]  
  

Славные парни / The Nice Guys (2016) HDRip [H.264] [MP4|1024x428]

Сообщение explosiveone » 11 авг 2016, 19:44

Славные парни / The Nice Guys (2016) HDRip

«Симпатичная пара»
Производство: США, Великобритания, Bloom, Lip Sync Productions, Misty Mountains, Silver Pictures
Жанр: Криминал, Комедия

Режиссер: Шейн Блэк
Актеры: Райан Гослинг, Ким Бейсингер, Рассел Кроу, Энгаури Райс, Мэтт Бомер, Маргарет Куэлли, Йайа ДаКоста, Кит Дэвид, Бо Напп, Лоис Смит

Описание:
Что бывает, когда напарником брутального костолома становится субтильный лопух? Наемный охранник Джексон Хили и частный детектив Холланд Марч вынуждены работать в паре, чтобы распутать плевое дело о пропавшей девушке, которое оборачивается преступлением века. Смогут ли парни разгадать сложный ребус, если у каждого из них - свои, весьма индивидуальные, методы...


Возраст: 16+ (зрителям, достигшим 16 лет)
Рейтинг MPAA: R (лицам до 17 лет обязательно присутствие взрослого)

Продолжительность: 01:55:57
Качество видео: HDRip
Перевод: Дублированный (iTunes)
Вид субтитров: Вшитые
Язык субтитров: Английский

Видео: AVC/H.264 (Main@L3.1), 1024x428 (2.40:1), 1800 Кбит/сек
Аудио #1: AAC, 2 канала, 128 Кбит/сек - русский
Аудио #2: AAC, 2 канала, 128 Кбит/сек - английский
Код:
Код: Выделить всё
General
Complete name               : C:\CREATE\The.Nice.Guys.2016.576p.HDRip.AAC.NNMclub.mp4
Format                      : MPEG-4
Format profile              : Base Media
Codec ID                    : isom (isom/avc1/iso2)
File size                   : 1.68 GiB
Duration                    : 1 h 55 min
Overall bit rate mode       : Variable
Overall bit rate            : 2 069 kb/s
Movie name                  : Славные парни
Performer                   : Shane Black
Director                    : Shane Black
Actor                       : Russell Crowe (Jackson Healy) / Ryan Gosling (Holland March) / Angourie Rice (Holly March) / Matt Bomer (John Boy) / Margaret Qualley (Amelia Kuttner) / Keith David (Older Guy) / Kim Basinger (Judith Kuttner) / Beau Knapp (Blueface) / Yaya DaCosta (Tally) / Ty Simpkins (Bobby) / Jack Kilmer (Chet) / Hannibal Buress (Bumble) / Lois Smith (Mrs. Glenn) / Yvonne Zima (Red Thompson) / Gil Gerard (Bergen Paulsen) / Daisy Tahan (Jessica) / Gary Weeks (Officer McMillan) / Lexi Johnson (Pocahontas) / Murielle Telio (Misty Mountains) / Steve Wilder (Perry the Lawyer)
Screenplay by               : Shane Black / Anthony Bagarozzi
Producer                    : Sarah Finn / Joel Silver / Aaron Auch / Ethan Erwin / Anthony Bagarozzi / Ken Kao / Michael J. Malone / Hal Sadoff
Genre                       : Thriller
ContentType                 : Short Film
Description                 : Что бывает, когда напарником брутального костолома становится субтильный лопух? Наемный охранник Джексон Хили и частный детектив Холланд Марч вынуждены работать в паре, чтобы распутать плевое дело о пропавшей девушке, которое оборачивается преступлен
Recorded date               : UTC 2016-05-20 07:00:00
Encoded date                : UTC 2016-08-11 11:26:11
Tagged date                 : UTC 2016-08-11 11:28:59
Cover                       : Yes
Comment                     : «Симпатичная пара»
Rating                      : None
Title/Sort                  : The Nice Guys
LongDescription             : Set in 1970s Los Angeles, down-on-his-luck private eye Holland March (Ryan Gosling) and hired leg-breaker Jackson Healy (Russell Crowe) must work together to solve the case of a missing girl and the seemingly unrelated death of a porn star. During their investigation, they uncover a shocking conspiracy that reaches up to the highest circles of power.
Vendor                      : Apple:vendor_id:2016-tt3799694
ContentRating               : mpaa|R|400|

Video
ID                          : 1
Format                      : AVC
Format/Info                 : Advanced Video Codec
Format profile              : Main@L3
Format settings, CABAC      : No
Format settings, ReFrames   : 4 frames
Codec ID                    : avc1
Codec ID/Info               : Advanced Video Coding
Duration                    : 1 h 55 min
Bit rate                    : 1 800 kb/s
Maximum bit rate            : 11.3 Mb/s
Width                       : 1 024 pixels
Height                      : 428 pixels
Display aspect ratio        : 2.40:1
Frame rate mode             : Constant
Frame rate                  : 23.976 (24000/1001) FPS
Color space                 : YUV
Chroma subsampling          : 4:2:0
Bit depth                   : 8 bits
Scan type                   : Progressive
Bits/(Pixel*Frame)          : 0.171
Stream size                 : 1.46 GiB (87%)
Writing library             : x264 core 148 r2705+54 9f484c1 t_mod_Custom [8-bit@all X86_64]
Encoding settings           : cabac=0 / ref=3 / deblock=1:-3:-3 / analyse=0x1:0x111 / me=umh / subme=8 / psy=1 / fade_compensate=0.00 / psy_rd=1.00:0.15 / mixed_ref=1 / me_range=32 / chroma_me=1 / trellis=2 / 8x8dct=0 / cqm=0 / deadzone=21,11 / fast_pskip=0 / chroma_qp_offset=-3 / threads=12 / lookahead_threads=2 / sliced_threads=0 / nr=0 / decimate=0 / interlaced=0 / bluray_compat=0 / constrained_intra=0 / fgo=0 / bframes=3 / b_pyramid=2 / b_adapt=2 / b_bias=0 / direct=3 / weightb=1 / open_gop=0 / weightp=2 / keyint=240 / keyint_min=23 / scenecut=40 / intra_refresh=0 / rc_lookahead=40 / rc=2pass / mbtree=1 / bitrate=1800 / ratetol=1.0 / qcomp=0.60 / qpmin=0:0:0 / qpmax=69:69:69 / qpstep=4 / cplxblur=20.0 / qblur=0.5 / vbv_maxrate=10000 / vbv_bufsize=10000 / nal_hrd=none / filler=0 / ip_ratio=1.30 / aq=3:0.80 / aq-sensitivity=10.00 / aq-factor=1.00:1.00:1.00 / aq2=0 / aq3=3:[0.50:0.50]:[0.40:0.40]:[0.40:0.40]:[0.50:0.50] / aq3-sensitivity=10.00 / aq3-factor=[1.00:1.00]:[1.00:1.00]:[1.00:1.00] / aq3-boundary=205:56:9
Language                    : English
Encoded date                : UTC 2016-08-11 11:26:11
Tagged date                 : UTC 2016-08-11 11:26:31
Color range                 : Limited
Matrix coefficients         : BT.709
Menus                       : 5

Audio #1
ID                          : 2
Format                      : AAC
Format/Info                 : Advanced Audio Codec
Format profile              : LC
Codec ID                    : 40
Duration                    : 1 h 55 min
Bit rate mode               : Variable
Bit rate                    : 128 kb/s
Maximum bit rate            : 133 kb/s
Channel(s)                  : 2 channels
Channel positions           : Front: L R
Sampling rate               : 48.0 kHz
Frame rate                  : 46.875 FPS (1024 spf)
Compression mode            : Lossy
Stream size                 : 106 MiB (6%)
Language                    : Russian
Default                     : Yes
Alternate group             : 1
Encoded date                : UTC 2016-08-11 11:26:23
Tagged date                 : UTC 2016-08-11 11:26:31

Audio #2
ID                          : 3
Format                      : AAC
Format/Info                 : Advanced Audio Codec
Format profile              : LC
Codec ID                    : 40
Duration                    : 1 h 55 min
Bit rate mode               : Variable
Bit rate                    : 128 kb/s
Maximum bit rate            : 131 kb/s
Channel(s)                  : 2 channels
Channel positions           : Front: L R
Sampling rate               : 48.0 kHz
Frame rate                  : 46.875 FPS (1024 spf)
Compression mode            : Lossy
Stream size                 : 106 MiB (6%)
Language                    : English
Default                     : No
Alternate group             : 1
Encoded date                : UTC 2016-08-11 11:26:27
Tagged date                 : UTC 2016-08-11 11:26:31

Text
ID                          : 4
Format                      : Timed Text
Muxing mode                 : sbtl
Codec ID                    : tx3g
Duration                    : 1 h 50 min
Bit rate mode               : Variable
Bit rate                    : 92 b/s
Stream size                 : 75.0 KiB (0%)
Title                       : Full
Language                    : English
Default                     : Yes
Forced                      : No
Alternate group             : 2
Encoded date                : UTC 2016-08-11 11:26:31
Tagged date                 : UTC 2016-08-11 11:26:31

Menu
ID                          : 5
Codec ID                    : text
Duration                    : 1 h 55 min
Encoded date                : UTC 2016-08-11 11:27:02
Tagged date                 : UTC 2016-08-11 11:27:02
Bit rate mode               : CBR
Menu For                    : 1
00:00:00.000                : 00:00:00.000
00:10:41.683                : 00:10:41.683
00:21:07.308                : 00:21:07.308
00:29:12.876                : 00:29:12.876
00:40:12.744                : 00:40:12.744
00:50:50.464                : 00:50:50.464
01:01:02.033                : 01:01:02.033
01:10:15.420                : 01:10:15.420
01:19:59.086                : 01:19:59.086
01:29:40.709                : 01:29:40.709
01:40:10.338                : 01:40:10.338
01:48:35.801                : 01:48:35.801
01:50:49.977                : 01:50:49.977

Скриншоты:


Время раздачи: 24/7 (круглосуточно) (до появления первых 3-5 скачавших)
 
Не забывайте говорить Спасибо. Не уходите с раздачи!   
Торрент: Зарегистрирован [11 авг 2016, 19:44] Для скачивания .torrent
необходима регистрация
Или скачать с помощью
MediaGet
Статус:
Проверен
 
.torrent скачан: 1 раз
Хэш: 5cf39b22b591b819ade1d6365129e76069adfcb5
Размер: 1.68 ГБ (1 799 202 767 байт)
Стать Автором раздачи
 
 
Раздал: 100 ГБ
Скачал: 0 байт
Ратио: Seed.
Сообщения: 94013
Зарегистрирован: 09 апр 2015, 22:31


  • Похожие торренты
    Ответы
    Просмотры
    Последнее сообщение

Вернуться в Видео для мобильных устройств

Ресурс не предоставляет электронные версии произведений, а занимается лишь коллекционированием и каталогизацией ссылок, присылаемых и публикуемых на форуме нашими читателями. Если вы являетесь правообладателем какого-либо представленного материала и не желаете чтобы ссылка на него находилась в нашем каталоге, свяжитесь с нами и мы незамедлительно удалим её. Файлы для обмена на трекере предоставлены пользователями сайта, и администрация не несёт ответственности за их содержание. Просьба не заливать файлы, защищенные авторскими правами, а также файлы нелегального содержания!
cron