Роковой круиз. Тайна катастрофы на Волге (2006) DVB

 
 Статистика раздачи 
Размер: 408.86 МБ   |  Зарегистрирован: 09 авг 2016, 22:36   |   .torrent скачан: 1 раз
Сидеров: 1  [ 0 байт/сек ]     Личеров: 0  [ 0 байт/сек ]  
  

Роковой круиз. Тайна катастрофы на Волге (2006) DVB

Сообщение explosiveone » 09 авг 2016, 22:36

Роковой круиз. Тайна катастрофы на Волге (2006) DVB

Телекомпания: Россия, Студия "Вертов и К"
Жанр: Документальный

Участники: Автор и Режисер: Петр Зеленов

Описание:
5 июня 1983 года на Волге, поблизости от Ульяновска, произошла катастрофа. Пассажирский теплоход "Александр Суворов" на полном ходу врезался в мост. В этот момент на верхней палубе, где располагалась танцплощадка, собралось много пассажиров. На той же палубе находился и кинозал, он также был переполнен. Перекрытие моста срезало всю верхнюю палубу и надстройку с людьми. Погибло более 300 человек. Причина катастрофы была очевидна - нелепая ошибка, вследствие которой теплоход пошел в пролет, не предназначенный для прохода таких судов. В это время в рубке находился опытный штурман, который много раз ходил по этому маршруту. Почему произошла катастрофа, до сих пор никто не может дать определенный ответ. Существует несколько версий, о которых авторы документального фильма расскажут зрителям.

Продолжительность: 00:44:01
Качество видео: DVB

Видео: AVC/H.264, 704х528, ~1200 kb/s
Аудио: AAC, 2 ch, 96 kb/s, VBR
Код:
Код: Выделить всё
Общее
Полное имя                               : Роковой круиз. Тайна катастрофы на Волге.mp4
Формат                                   : MPEG-4
Профиль формата                          : Base Media / Version 2
Идентификатор кодека                     : mp42
Размер файла                             : 409 Мбайт
Продолжительность                        : 44 м.
Режим общего битрейта                    : Переменный
Общий поток                              : 1298 Кбит/сек
Дата кодирования                         : UTC 2012-03-24 15:26:57
Дата пометки                             : UTC 2012-03-24 15:26:57

Видео
Идентификатор                            : 1
Формат                                   : AVC
Формат/Информация                        : Advanced Video Codec
Профиль формата                          :
Параметр CABAC формата                   : Да
Параметр ReFrames формата                : 2 кадра
Параметр GOP формата                     : M=3, N=75
Идентификатор кодека                     : avc1
Идентификатор кодека/Информация          : Advanced Video Coding
Продолжительность                        : 44 м.
Вид битрейта                             : Постоянный
Битрейт                                  : 1200 Кбит/сек
Ширина                                   : 704 пикселя
Высота                                   : 528 пикселей
Соотношение сторон                       : 4:3
Режим частоты кадров                     : Постоянный
Частота кадров                           : 25,000 кадров/сек
Цветовое пространство                    : YUV
Субдискретизация насыщенности            : 4:2:0
Битовая глубина                          : 8 бит
Тип развёртки                            : Прогрессивная
Бит/(Пиксели*Кадры)                      : 0.129
Размер потока                            : 378 Мбайт (92%)
Язык                                     : English
Дата кодирования                         : UTC 2012-03-24 15:26:57
Дата пометки                             : UTC 2012-03-24 15:26:57

Аудио
Идентификатор                            : 2
Формат                                   : AAC
Формат/Информация                        : Advanced Audio Codec
Профиль формата                          : HE-AAC / LC
Идентификатор кодека                     : 40
Продолжительность                        : 44 м.
Вид битрейта                             : Переменный
Битрейт                                  : 96,0 Кбит/сек
Максимальный битрейт                     : 186 Кбит/сек
Каналы                                   : 2 канала
Расположение каналов                     : Front: L R
Частота                                  : 48,0 КГц / 24,0 КГц
Метод сжатия                             : С потерями
Размер потока                            : 29,8 Мбайт (7%)
Язык                                     : English
Дата кодирования                         : UTC 2012-03-24 15:26:57
Дата пометки                             : UTC 2012-03-24 15:26:57


Скриншоты:



Время раздачи: Сб-Вс с 09:00 до 23:30 (до появления первых 3-5 скачавших)
 
Не забывайте говорить Спасибо. Не уходите с раздачи!   
Торрент: Зарегистрирован [09 авг 2016, 22:36] Для скачивания .torrent
необходима регистрация
Или скачать с помощью
MediaGet
Статус:
Проверен
 
.torrent скачан: 1 раз
Хэш: e4044f3db7473b23711f4af5b63c78b4572d39f4
Размер: 408.86 МБ (428 718 571 байт)
Стать Автором раздачи
 
 
Раздал: 100 ГБ
Скачал: 0 байт
Ратио: Seed.
Сообщения: 82288
Зарегистрирован: 09 апр 2015, 22:31


  • Похожие торренты
    Ответы
    Просмотры
    Последнее сообщение

Вернуться в Флот

Кто сейчас на конференции

Сейчас эту тему просматривают: нет зарегистрированных пользователей и гости: 1

Ресурс не предоставляет электронные версии произведений, а занимается лишь коллекционированием и каталогизацией ссылок, присылаемых и публикуемых на форуме нашими читателями. Если вы являетесь правообладателем какого-либо представленного материала и не желаете чтобы ссылка на него находилась в нашем каталоге, свяжитесь с нами и мы незамедлительно удалим её. Файлы для обмена на трекере предоставлены пользователями сайта, и администрация не несёт ответственности за их содержание. Просьба не заливать файлы, защищенные авторскими правами, а также файлы нелегального содержания!