5 историй. Русский "Титаник" (2008) DVB

 
 Статистика раздачи 
Размер: 328.74 МБ   |  Зарегистрирован: 09 авг 2016, 22:35   |   .torrent скачан: 1 раз
Сидеров: 1  [ 0 байт/сек ]     Личеров: 0  [ 0 байт/сек ]  
  

5 историй. Русский "Титаник" (2008) DVB

Сообщение explosiveone » 09 авг 2016, 22:35

5 историй. Русский "Титаник" (2008) DVB

Телекомпания: Россия, Рен-ТВ
Жанр: Документальный

Участники: Режиссер: Оксана Барковская

Описание:
31 августа 1986 года при выходе из порта Новороссийск пассажирский теплоход Адмирал Нахимов столкнулся с другим судном, что повлекло за собой многочисленные человеческие жертвы. Неизвестные факты и версии трагедии в рассказах очевидцев.

Продолжительность: 00:20:37
Качество видео: DVB

Видео: AVC/H.264, 720х576, ~1940 kb/s
Аудио: MP2, 2 ch, 192 kb/s, CBR
Код:
Код: Выделить всё
Общее
Идентификатор                            : 1 (0x1)
Полное имя                               : 5 историй_Русский Титаник.m2ts
Формат                                   : BDAV
Формат/Информация                        : Blu-ray Video
Размер файла                             : 329 Мбайт
Продолжительность                        : 20 м.
Режим общего битрейта                    : Переменный
Общий поток                              : 2229 Кбит/сек

Видео
Идентификатор                            : 4113 (0x1011)
Идентификатор меню                       : 1 (0x1)
Формат                                   : AVC
Формат/Информация                        : Advanced Video Codec
Профиль формата                          :
Параметр CABAC формата                   : Да
Параметр ReFrames формата                : 3 кадра
Идентификатор кодека                     : 27
Продолжительность                        : 20 м.
Битрейт                                  : 1940 Кбит/сек
Ширина                                   : 720 пикселей
Высота                                   : 576 пикселей
Соотношение сторон                       : 4:3
Частота кадров                           : 25,000 кадров/сек
Стандарт вещания                         : PAL
Цветовое пространство                    : YUV
Субдискретизация насыщенности            : 4:2:0
Битовая глубина                          : 8 бит
Тип развёртки                            : Прогрессивная
Бит/(Пиксели*Кадры)                      : 0.187
Размер потока                            : 286 Мбайт (87%)
Основные цвета                           : BT.601 PAL
Характеристики трансфера                 : BT.470 System B, BT.470 System G
Коэффициенты матрицы                     : BT.601

Аудио
Идентификатор                            : 4352 (0x1100)
Идентификатор меню                       : 1 (0x1)
Формат                                   : MPEG Audio
Версия формата                           : Version 1
Профиль формата                          : Layer 2
Идентификатор кодека                     : 4
Продолжительность                        : 20 м.
Вид битрейта                             : Постоянный
Битрейт                                  : 192 Кбит/сек
Каналы                                   : 2 канала
Частота                                  : 48,0 КГц
Метод сжатия                             : С потерями
Задержка видео                           : 133 мс.
Размер потока                            : 28,3 Мбайт (9%)
Язык                                     : std
Язык, дополнительно                      : Clean effects

Скриншоты:



Время раздачи: Сб-Вс с 09:00 до 23:30 (до появления первых 3-5 скачавших)
 
Не забывайте говорить Спасибо. Не уходите с раздачи!   
Торрент: Зарегистрирован [09 авг 2016, 22:35] Для скачивания .torrent
необходима регистрация
Или скачать с помощью
MediaGet
Статус:
Проверен
 
.torrent скачан: 1 раз
Хэш: 50662a924e3d7c67ade13f7857c6011bf2fd44c0
Размер: 328.74 МБ (344 709 120 байт)
Стать Автором раздачи
 
 
Раздал: 100 ГБ
Скачал: 0 байт
Ратио: Seed.
Сообщения: 90065
Зарегистрирован: 09 апр 2015, 22:31


Вернуться в Флот

Ресурс не предоставляет электронные версии произведений, а занимается лишь коллекционированием и каталогизацией ссылок, присылаемых и публикуемых на форуме нашими читателями. Если вы являетесь правообладателем какого-либо представленного материала и не желаете чтобы ссылка на него находилась в нашем каталоге, свяжитесь с нами и мы незамедлительно удалим её. Файлы для обмена на трекере предоставлены пользователями сайта, и администрация не несёт ответственности за их содержание. Просьба не заливать файлы, защищенные авторскими правами, а также файлы нелегального содержания!
cron