Русский "Титаник". Дожить до рассвета (2008) DVB

 
 Статистика раздачи 
Размер: 248.81 МБ   |  Зарегистрирован: 09 авг 2016, 22:33   |   .torrent скачан: 0 раз
Сидеров: 1  [ 0 байт/сек ]     Личеров: 0  [ 0 байт/сек ]  
  

Русский "Титаник". Дожить до рассвета (2008) DVB

Сообщение explosiveone » 09 авг 2016, 22:33

Русский "Титаник". Дожить до рассвета (2008) DVB

Телекомпания: Россия, "Телекомпания "МИРА-Продакшн"
Жанр: Документальный

Участники: Режисёр: Максим Файтельберг

Описание:
31 августа 1986 года в Цемесской бухте, в четырех километрах от берега, произошла одна из самых страшных катастроф на Черном море. За восемь минут затонул круизный пароход "Адмирал Нахимов". Страна узнала об этом на следующий день, первого сентября. Известие вызвало шок. Как вблизи от берега, в теплом море могло погибнуть 423 человека? Почему туристское судно затонуло столь стремительно - ведь даже "Титаник" тонул более четырех часов? Как не разминулись в известной вдоль и поперек Цемесской бухте два корабля? Для многих эти вопросы не ясны до сих пор. О причинах катастрофы, о том, как спасались люди, о поведении капитанов столкнувшихся судов рассказывают старший следователь по особо важным делам Борис Уваров, боцман "Адмирала Нахимова" Вилен Лобода, другие очевидцы катастрофы.

Продолжительность: 00:44:30
Качество видео: DVB

Видео: AVC/H.264, 640х480, ~700 kbps
Аудио: AAC, 2 ch, 78,7 kb/s, VBR
Код:
Код: Выделить всё
Общее
Полное имя                               : Русский Титаник. Дожить до рассвета.mp4
Формат                                   : MPEG-4
Профиль формата                          : Base Media / Version 2
Идентификатор кодека                     : mp42
Размер файла                             : 249 Мбайт
Продолжительность                        : 44 м.
Режим общего битрейта                    : Переменный
Общий поток                              : 782 Кбит/сек
Дата кодирования                         : UTC 2011-04-22 15:48:23
Дата пометки                             : UTC 2011-04-22 15:48:23

Видео
Идентификатор                            : 1
Формат                                   : AVC
Формат/Информация                        : Advanced Video Codec
Профиль формата                          :
Параметр CABAC формата                   : Да
Параметр ReFrames формата                : 2 кадра
Идентификатор кодека                     : avc1
Идентификатор кодека/Информация          : Advanced Video Coding
Продолжительность                        : 44 м.
Вид битрейта                             : Постоянный
Битрейт                                  : 700 Кбит/сек
Ширина                                   : 640 пикселей
Высота                                   : 480 пикселей
Соотношение сторон                       : 4:3
Режим частоты кадров                     : Постоянный
Частота кадров                           : 25,000 кадров/сек
Цветовое пространство                    : YUV
Субдискретизация насыщенности            : 4:2:0
Битовая глубина                          : 8 бит
Тип развёртки                            : Прогрессивная
Бит/(Пиксели*Кадры)                      : 0.091
Размер потока                            : 223 Мбайт (90%)
Язык                                     : English
Дата кодирования                         : UTC 2011-04-22 15:48:23
Дата пометки                             : UTC 2011-04-22 15:48:23

Аудио
Идентификатор                            : 2
Формат                                   : AAC
Формат/Информация                        : Advanced Audio Codec
Профиль формата                          : HE-AAC / LC
Идентификатор кодека                     : 40
Продолжительность                        : 44 м.
Вид битрейта                             : Переменный
Битрейт                                  : 78,7 Кбит/сек
Максимальный битрейт                     : 107 Кбит/сек
Каналы                                   : 2 канала
Расположение каналов                     : Front: L R
Частота                                  : 48,0 КГц / 24,0 КГц
Метод сжатия                             : С потерями
Размер потока                            : 25,1 Мбайт (10%)
Язык                                     : English
Дата кодирования                         : UTC 2011-04-22 15:48:23
Дата пометки                             : UTC 2011-04-22 15:48:23

Скриншоты:



Время раздачи: Сб-Вс с 09:00 до 23:30 (до появления первых 3-5 скачавших)
 
Не забывайте говорить Спасибо. Не уходите с раздачи!   
Торрент: Зарегистрирован [09 авг 2016, 22:33] Для скачивания .torrent
необходима регистрация
Или скачать с помощью
MediaGet
Статус:
Проверен
 
.torrent скачан: 0 раз
Хэш: 4ed3f6f1ef64a32a23f7f806b58ab1d9944b5f03
Размер: 248.81 МБ (260 894 354 байт)
Стать Автором раздачи
 
 
Раздал: 100 ГБ
Скачал: 0 байт
Ратио: Seed.
Сообщения: 82289
Зарегистрирован: 09 апр 2015, 22:31


  • Похожие торренты
    Ответы
    Просмотры
    Последнее сообщение

Вернуться в Флот

Кто сейчас на конференции

Сейчас эту тему просматривают: нет зарегистрированных пользователей и гости: 1

Ресурс не предоставляет электронные версии произведений, а занимается лишь коллекционированием и каталогизацией ссылок, присылаемых и публикуемых на форуме нашими читателями. Если вы являетесь правообладателем какого-либо представленного материала и не желаете чтобы ссылка на него находилась в нашем каталоге, свяжитесь с нами и мы незамедлительно удалим её. Файлы для обмена на трекере предоставлены пользователями сайта, и администрация не несёт ответственности за их содержание. Просьба не заливать файлы, защищенные авторскими правами, а также файлы нелегального содержания!