Почему я? (20 выпускoв) [2015-2016, Документальный цикл, биографический, HDTV 1080i]

 
 Статистика раздачи 
Размер: 26.18 ГБ   |  Зарегистрирован: 09 авг 2016, 21:00   |   .torrent скачан: 0 раз
Сидеров: 1  [ 0 байт/сек ]     Личеров: 0  [ 0 байт/сек ]  
  

Почему я? (20 выпускoв) [2015-2016, Документальный цикл, биографический, HDTV 1080i]

Сообщение aLaVodka » 09 авг 2016, 21:00

Почему я?

Год выпуска: 2015-2016
Страна: Россия
Студия: МТРК Мир
Жанр: Документальный цикл, биографический
Продолжительность: 00:24:07
Перевод: Не требуется
Русские субтитры: нет
релиз: dean10

Описание:

Жизнь каждой из наших героинь могла бы стать основой киноромана или литературного бестселлера. Это женщины с необычной и яркой судьбой. Они всегда в центре внимания. Почему именно они оказались на вершине успеха? Каждая сама рассказала нам честно и откровенно: «Почему я?»

09.08.2016 _ добавил:
Багдасарова Карина
Рутберг Юлия
Салахова Айдан

перезаливаем
Багдасарова Карина
Бестемьянова Наталья
Блёданс Эвелина
Будина Ольга
Буланова Татьянa
Гришаева Нонна
Давыдова Анастасия
Доктор Лиза
Дружинина Светлана
Железняк Олеся
Казарновская Любовь
Ксенофонтова Елена
Кутеповы Полина и Ксения
Ланская Валерия
Недзвецкая Яна
Поплавская Яна
Рождественская Екатерина
Рутберг Юлия
Салахова Айдан
Сурикова Алла
Сэмпл: http://multi-up.com/1100156

Тип релиза: HDTV 1080i
Контейнер: TS

Видео: AVC, 1920x1080, (16:9), 25 fps, 7 292 kbps
Аудио: Russian: 48 kHz; MP2, 2 ch; 192 kbps
Код: Выделить всё
General
ID                                       : 1 (0x1)
Complete name                            : X:\Почему я_HDTV 1080i_RU\Будина Ольга.ts
Format                                   : MPEG-TS
File size                                : 1.35 GiB
Duration                                 : 24mn 7s
Overall bit rate mode                    : Variable
Overall bit rate                         : 8 011 Kbps

Video
ID                                       : 1681 (0x691)
Menu ID                                  : 1680 (0x690)
Format                                   : AVC
Format/Info                              : Advanced Video Codec
Format profile                           : High@L4
Format settings, CABAC                   : Yes
Format settings, ReFrames                : 2 frames
Format settings, GOP                     : M=3, N=12
Codec ID                                 : 27
Duration                                 : 24mn 8s
Bit rate                                 : 7 292 Kbps
Width                                    : 1 920 pixels
Height                                   : 1 080 pixels
Display aspect ratio                     : 16:9
Frame rate                               : 25.000 fps
Color space                              : YUV
Chroma subsampling                       : 4:2:0
Bit depth                                : 8 bits
Scan type                                : Interlaced
Scan type, store method                  : Separated fields
Scan order                               : Top Field First
Bits/(Pixel*Frame)                       : 0.141
Stream size                              : 1.23 GiB (91%)

Audio
ID                                       : 1682 (0x692)
Menu ID                                  : 1680 (0x690)
Format                                   : MPEG Audio
Format version                           : Version 1
Format profile                           : Layer 2
Codec ID                                 : 3
Duration                                 : 24mn 8s
Bit rate mode                            : Constant
Bit rate                                 : 320 Kbps
Channel(s)                               : 2 channels
Sampling rate                            : 48.0 KHz
Compression mode                         : Lossy
Stream size                              : 55.2 MiB (4%)
Language                                 : Russian
 
Не забывайте говорить Спасибо. Не уходите с раздачи!   
Торрент: Зарегистрирован [09 авг 2016, 21:00] Для скачивания .torrent
необходима регистрация
Или скачать с помощью
MediaGet
Статус:
Проверен
 
.torrent скачан: 0 раз
Хэш: 0094b221ae8e142124c3e02367a019e3a316ce20
Размер: 26.18 ГБ (28 115 902 900 байт)
Стать Автором раздачи
 
 
Раздал: 100 ГБ
Скачал: 0 байт
Ратио: Seed.
Сообщения: 188762
Зарегистрирован: 09 апр 2015, 20:00


  • Похожие торренты
    Ответы
    Просмотры
    Последнее сообщение

Вернуться в Биографии. Личности и кумиры (HD Video)

Ресурс не предоставляет электронные версии произведений, а занимается лишь коллекционированием и каталогизацией ссылок, присылаемых и публикуемых на форуме нашими читателями. Если вы являетесь правообладателем какого-либо представленного материала и не желаете чтобы ссылка на него находилась в нашем каталоге, свяжитесь с нами и мы незамедлительно удалим её. Файлы для обмена на трекере предоставлены пользователями сайта, и администрация не несёт ответственности за их содержание. Просьба не заливать файлы, защищенные авторскими правами, а также файлы нелегального содержания!
cron