XXXI летние олимпийские игры в Рио / Плавание / Матч Арена HD [06-07.08.2016, Плавание, HDTVRip, H.264/AVC, MKV, 400p, RU] обновляемая

Плавание, синхронное плавание, прыжки в воду, академическая гребля, гребля на байдарках и каноэ, гребной слалом, парусный спорт
 
 Статистика раздачи 
Размер: 6.77 ГБ   |  Зарегистрирован: 08 авг 2016, 17:19   |   .torrent скачан: 1 раз
Сидеров: 1  [ 0 байт/сек ]     Личеров: 0  [ 0 байт/сек ]  
  

XXXI летние олимпийские игры в Рио / Плавание / Матч Арена HD [06-07.08.2016, Плавание, HDTVRip, H.264/AVC, MKV, 400p, RU] обновляемая

Сообщение aLaVodka » 08 авг 2016, 17:19

XXXI летние олимпийские игры в Рио / Плавание

#7Вид спорта: Плавание
Дата/Год выпуска: 06-07.08.2016
Язык комментариев: Русский
Телеканал: Матч Арена HD

Описание:
06-07 августа 2016 года, суббота.
Арена: Олимпик Акватикс (Рио-де-Жанейро, Бразилия).
Мужские и женские предварительные и финальные заплывы.

Автор постера:
Автор рипа/записи: _Steep_
Качество: HDTVRip
Формат видео: MKV
Видео: AVC/H.264, 720x400, 50 fps, ~2000 kb/s
Аудио: русский, MP2, 2 ch, 48000 Hz, 192 Kbps
06 августа 2016 года, суббота - [01:52:17]
19:00 МСК - Мужчины. 400 м комплекс. Предварительные заплывы (не показали, трансляция началась сразу со следующего заплыва)
19:30 МСК - Женщины. 100 м баттерфляй. Предварительные заплывы
19:50 МСК - Мужчины. 400 м вольный стиль. Предварительные заплывы
20:20 МСК - Женщины. 400 м комплекс. Предварительные заплывы
20:50 МСК - Мужчины. 100 м брасс. Предварительные заплывы
21:15 МСК - Женщины. Эстафета 4х100 м вольный стиль. Предварительные заплывы (не показали)
07 августа 2016 года, воскресенье - [01:57:41]
04:00 МСК - Мужчины. 400 м комплекс. Финал
04:10 МСК - Женщины. 100 м баттерфляй. 1/2 финала
04:25 МСК - Мужчины. 400 м вольный стиль. Финал
04:45 МСК - Женщины. 400 м комплекс. Финал
05:05 МСК - Мужчины. 100 м брасс. 1/2 финала
05:30 МСК - Женщины. Эстафета 4х100 м вольный стиль. Финал
07 августа 2016 года, воскресенье - [01:44:56]
19:00 МСК - Женщины. 100 м на спине. Предварительные заплывы
19:20 МСК - Мужчины. 200 м вольный стиль. Предварительные заплывы
19:50 МСК - Женщины. 100 м брасс. Предварительные заплывы
20:15 МСК - Мужчины. 100 м на спине. Предварительные заплывы
20:35 МСК - Женщины. 400 м вольный стиль. Предварительные заплывы
21:05 МСК - Мужчины. Эстафета 4х100 м вольный стиль. Предварительные заплывы
08 августа 2016 года, понедельник - [02:04:01]
04:00 МСК - Плавание Женщины. 100 м баттерфляй. Финал
04:05 МСК - Плавание Мужчины. 200 м вольный стиль. 1/2 финала
04:30 МСК - Плавание Женщины. 100 м брасс. 1/2 финала
04:50 МСК - Плавание Мужчины. 100 м брасс. Финал
05:00 МСК - Плавание Женщины. 400 м вольный стиль. Финал
05:10 МСК - Плавание Мужчины. 100 м на спине. 1/2 финала
05:35 МСК - Плавание Женщины. 100 м на спине. 1/2 финала
05:50 МСК - Плавание Мужчины. Эстафета 4х100 м вольный стиль. Финал
Код: Выделить всё
[img]http://i045.radikal.ru/1608/b1/aeee67459c99.png[/img]
]http://radikal.ru/Img/ShowUploadedImg?id=e9b159c83f934d4b9e5408c136812664[/img][/url]
Код: Выделить всё
Общее
Уникальный идентификатор                 : 171934726540380458376591099026004360027 (0x81596C8047F9365AAC680AFEB131BB5B)
Полное имя                               : F:\ТВ\Олимпийские игры в Рио 2016\Плавание.400p\Рио-2016_(2016.08.06)_Плавание_Предварительные заплывы_(Матч Арена HD)_HDTVRip_steep.mkv
Формат                                   : Matroska
Версия формата                           : Version 4 / Version 2
Размер файла                             : 1,95 Гбайт
Продолжительность                        : 1 ч. 52 м.
Общий поток                              : 2489 Кбит/сек
Дата кодирования                         : UTC 2016-08-07 13:46:37
Программа кодирования                    : mkvmerge v9.3.1 ('Mask Machine') 64bit
Библиотека кодирования                   : libebml v1.3.4 + libmatroska v1.4.5

Видео
Идентификатор                            : 1
Формат                                   : AVC
Формат/Информация                        : Advanced Video Codec
Профиль формата                          : High@L3.1
Параметр CABAC формата                   : Да
Параметр ReFrames формата                : 4 кадра
Идентификатор кодека                     : V_MPEG4/ISO/AVC
Продолжительность                        : 1 ч. 52 м.
Битрейт                                  : 2294 Кбит/сек
Ширина                                   : 720 пикселей
Высота                                   : 400 пикселей
Соотношение сторон                       : 16:9
Режим частоты кадров                     : Постоянный
Частота кадров                           : 50,000 кадров/сек
Цветовое пространство                    : YUV
Субдискретизация насыщенности            : 4:2:0
Битовая глубина                          : 8 бит
Тип развёртки                            : Прогрессивная
Бит/(Пиксели*Кадры)                      : 0.159
Размер потока                            : 1,80 Гбайт (92%)
Библиотека кодирования                   : x264 core 148 r2705M 3f5ed56
Настройки программы                      : cabac=1 / ref=2 / deblock=1:1:1 / analyse=0x3:0x133 / me=umh / subme=9 / psy=1 / psy_rd=1.05:0.10 / mixed_ref=1 / me_range=24 / chroma_me=1 / trellis=2 / 8x8dct=1 / cqm=0 / deadzone=21,11 / fast_pskip=0 / chroma_qp_offset=-3 / threads=4 / lookahead_threads=1 / sliced_threads=0 / nr=0 / decimate=1 / interlaced=0 / bluray_compat=0 / constrained_intra=0 / bframes=5 / b_pyramid=2 / b_adapt=2 / b_bias=0 / direct=1 / weightb=1 / open_gop=0 / weightp=2 / keyint=250 / keyint_min=25 / scenecut=40 / intra_refresh=0 / rc_lookahead=40 / rc=crf / mbtree=1 / crf=24.0 / qcomp=0.70 / qpmin=3 / qpmax=69 / qpstep=4 / ip_ratio=1.40 / aq=2:1.00
Default                                  : Да
Forced                                   : Нет
Цветовой диапазон                        : Limited
Основные цвета                           : BT.709
Характеристики трансфера                 : BT.709
Коэффициенты матрицы                     : BT.709

Аудио
Идентификатор                            : 2
Формат                                   : MPEG Audio
Версия формата                           : Version 1
Профиль формата                          : Layer 2
Идентификатор кодека                     : A_MPEG/L2
Идентификатор кодека/Подсказка           : MP2
Продолжительность                        : 1 ч. 52 м.
Вид битрейта                             : Постоянный
Битрейт                                  : 192 Кбит/сек
Каналы                                   : 2 канала
Частота                                  : 48,0 КГц
Частота кадров                           : 41,667 кадра/сек (1152 spf)
Метод сжатия                             : С потерями
Размер потока                            : 154 Мбайт (8%)
Язык                                     : Russian
Default                                  : Да
Forced                                   : Нет
 
Не забывайте говорить Спасибо. Не уходите с раздачи!   
Торрент: Зарегистрирован [08 авг 2016, 17:19] Скачать торрент
Скачать торрент
[ Размер 17.94 КБ / Просмотров 7 ]
Статус:
Проверен
 
.torrent скачан: 1 раз
Хэш: f76fd5f639adb674826c52f23e95a1f457aa979c
Размер: 6.77 ГБ (7 266 418 661 байт)
Стать Автором раздачи
 
 
Раздал: 100 ГБ
Скачал: 0 байт
Ратио: Seed.
Сообщения: 193002
Зарегистрирован: 09 апр 2015, 20:00


  • Похожие торренты
    Ответы
    Просмотры
    Последнее сообщение

Вернуться в Водные виды спорта / Гребля

Ресурс не предоставляет электронные версии произведений, а занимается лишь коллекционированием и каталогизацией ссылок, присылаемых и публикуемых на форуме нашими читателями. Если вы являетесь правообладателем какого-либо представленного материала и не желаете чтобы ссылка на него находилась в нашем каталоге, свяжитесь с нами и мы незамедлительно удалим её. Файлы для обмена на трекере предоставлены пользователями сайта, и администрация не несёт ответственности за их содержание. Просьба не заливать файлы, защищенные авторскими правами, а также файлы нелегального содержания!
cron