Нарком флота (2006) DVB

 
 Статистика раздачи 
Размер: 720.33 МБ   |  Зарегистрирован: 07 авг 2016, 18:43   |   .torrent скачан: 1 раз
Сидеров: 1  [ 0 байт/сек ]     Личеров: 0  [ 0 байт/сек ]  
  

Нарком флота (2006) DVB

Сообщение explosiveone » 07 авг 2016, 18:44

Нарком флота (2006) DVB

Телекомпания: Россия, Морская документальная видеостудия
Жанр: Документальный

Участники: Режиссер: Валентина Рассохо-Анохина

Описание:
Фильм основан на автобиографических данных Николая Герасимовича Кузнецова. В нем приведены выдержки из "Кузнецовских уроков", составленных в виде отдельного труда супругой Николая Герасимовича В.Н.Кузнецовой. Нарком флота-назначенный Сталиным перед войной, стал флотоводцем настоящим и будущим.

Продолжительность: 00:39:32
Качество видео: DVB

Видео: AVC/H.264, 720х576, ~245 kb/s
Аудио: MP2, 2 ch, 192 kb/s, CBR
Код:
Код: Выделить всё
Общее
Идентификатор                            : 1 (0x1)
Полное имя                               : Нарком флота.m2ts
Формат                                   : BDAV
Формат/Информация                        : Blu-ray Video
Размер файла                             : 720 Мбайт
Продолжительность                        : 39 м.
Режим общего битрейта                    : Переменный
Общий поток                              : 2547 Кбит/сек

Видео
Идентификатор                            : 4113 (0x1011)
Идентификатор меню                       : 1 (0x1)
Формат                                   : AVC
Формат/Информация                        : Advanced Video Codec
Профиль формата                          :
Параметр CABAC формата                   : Да
Параметр ReFrames формата                : 4 кадра
Идентификатор кодека                     : 27
Продолжительность                        : 39 м.
Битрейт                                  : 2245 Кбит/сек
Ширина                                   : 720 пикселей
Высота                                   : 576 пикселей
Соотношение сторон                       : 4:3
Частота кадров                           : 25,000 кадров/сек
Стандарт вещания                         : PAL
Цветовое пространство                    : YUV
Субдискретизация насыщенности            : 4:2:0
Битовая глубина                          : 8 бит
Тип развёртки                            : Чересстрочная
Порядок развёртки                        : Верхнее поле первое
Бит/(Пиксели*Кадры)                      : 0.217
Размер потока                            : 635 Мбайт (88%)
Основные цвета                           : BT.601 PAL
Характеристики трансфера                 : BT.470 System B, BT.470 System G
Коэффициенты матрицы                     : BT.601

Аудио
Идентификатор                            : 4352 (0x1100)
Идентификатор меню                       : 1 (0x1)
Формат                                   : MPEG Audio
Версия формата                           : Version 1
Профиль формата                          : Layer 2
Идентификатор кодека                     : 4
Продолжительность                        : 39 м.
Вид битрейта                             : Постоянный
Битрейт                                  : 192 Кбит/сек
Каналы                                   : 2 канала
Частота                                  : 48,0 КГц
Метод сжатия                             : С потерями
Задержка видео                           : 104 мс.
Размер потока                            : 54,3 Мбайт (8%)
Язык                                     : std
Язык, дополнительно                      : Clean effects

Скриншоты:



Время раздачи: Сб-Вс с 09:00 до 23:30 (до появления первых 3-5 скачавших)
 
Не забывайте говорить Спасибо. Не уходите с раздачи!   
Торрент: Зарегистрирован [07 авг 2016, 18:43] Для скачивания .torrent
необходима регистрация
Или скачать с помощью
MediaGet
Статус:
Проверен
 
.torrent скачан: 1 раз
Хэш: a48617139b37d5b301e7c9bffc833e9f84cdf9ac
Размер: 720.33 МБ (755 324 928 байт)
Стать Автором раздачи
 
 
Раздал: 100 ГБ
Скачал: 0 байт
Ратио: Seed.
Сообщения: 82288
Зарегистрирован: 09 апр 2015, 22:31


  • Похожие торренты
    Ответы
    Просмотры
    Последнее сообщение

Вернуться в Флот

Кто сейчас на конференции

Сейчас эту тему просматривают: нет зарегистрированных пользователей и гости: 1

Ресурс не предоставляет электронные версии произведений, а занимается лишь коллекционированием и каталогизацией ссылок, присылаемых и публикуемых на форуме нашими читателями. Если вы являетесь правообладателем какого-либо представленного материала и не желаете чтобы ссылка на него находилась в нашем каталоге, свяжитесь с нами и мы незамедлительно удалим её. Файлы для обмена на трекере предоставлены пользователями сайта, и администрация не несёт ответственности за их содержание. Просьба не заливать файлы, защищенные авторскими правами, а также файлы нелегального содержания!