Герои Второй мировой войны. Люди, которые потопили Бисмарк / Heroes of World War II. The Men who Sank the Bismarck (2004) DVB

 
 Статистика раздачи 
Размер: 340.3 МБ   |  Зарегистрирован: 07 авг 2016, 18:38   |   .torrent скачан: 0 раз
Сидеров: 1  [ 0 байт/сек ]     Личеров: 0  [ 0 байт/сек ]  
  

Герои Второй мировой войны. Люди, которые потопили Бисмарк / Heroes of World War II. The Men who Sank the Bismarck (2004) DVB

Сообщение explosiveone » 07 авг 2016, 18:38

Герои Второй мировой войны. Люди, которые потопили Бисмарк / Heroes of World War II. The Men who Sank the Bismarck (2004) DVB

Телекомпания: Великобритания, Nugus/Martin Productions Ltd.
Жанр: Документальный

Участники: Роберт Пауэлл, Эсмонд Найт

Описание:
Завершенный в 1940 году Бисмарк был широко известен как самый мощный военный корабль в мире. В апреле 1941 года адмирал Тови из британского Королевского флота обнаружил попытку со стороны Бисмарка вырваться в Атлантику и охота началась. В первом же бою, Бисмарк потопил HMS Hood. Но Тови использует радар, чтобы выследить его снова и, наконец, линкор был окружен британскими тяжелыми военными кораблями и в бою уничтожен.



Продолжительность: 00:23:24
Качество видео: DVB
Перевод: Одноголосый закадровый, профессиональный

Видео: AVC/H.264, 720х576, ~1752 kbps
Аудио: MP2, 2 ch, 192 Kbps, CBR
Код:
Код: Выделить всё
Общее
Идентификатор                            : 1 (0x1)
Полное имя                               : The Men Who Sank The Bismarck.m2ts
Формат                                   : BDAV
Формат/Информация                        : Blu-ray Video
Размер файла                             : 340 Мбайт
Продолжительность                        : 23 м.
Режим общего битрейта                    : Переменный
Общий поток                              : 2033 Кбит/сек

Видео
Идентификатор                            : 4113 (0x1011)
Идентификатор меню                       : 1 (0x1)
Формат                                   : AVC
Формат/Информация                        : Advanced Video Codec
Профиль формата                          :
Параметр CABAC формата                   : Да
Параметр ReFrames формата                : 4 кадра
Идентификатор кодека                     : 27
Продолжительность                        : 23 м.
Битрейт                                  : 1752 Кбит/сек
Ширина                                   : 720 пикселей
Высота                                   : 576 пикселей
Соотношение сторон                       : 4:3
Частота кадров                           : 25,000 кадров/сек
Стандарт вещания                         : PAL
Цветовое пространство                    : YUV
Субдискретизация насыщенности            : 4:2:0
Битовая глубина                          : 8 бит
Тип развёртки                            : Чересстрочная
Порядок развёртки                        : Верхнее поле первое
Бит/(Пиксели*Кадры)                      : 0.169
Размер потока                            : 293 Мбайт (86%)
Основные цвета                           : BT.601 PAL
Характеристики трансфера                 : BT.470 System B, BT.470 System G
Коэффициенты матрицы                     : BT.601

Аудио
Идентификатор                            : 4352 (0x1100)
Идентификатор меню                       : 1 (0x1)
Формат                                   : MPEG Audio
Версия формата                           : Version 1
Профиль формата                          : Layer 2
Идентификатор кодека                     : 4
Продолжительность                        : 23 м.
Вид битрейта                             : Постоянный
Битрейт                                  : 192 Кбит/сек
Каналы                                   : 2 канала
Частота                                  : 48,0 КГц
Метод сжатия                             : С потерями
Задержка видео                           : 25 мс.
Размер потока                            : 32,1 Мбайт (9%)
Язык                                     : std
Язык, дополнительно                      : Clean effects

Скриншоты:



Время раздачи: Пн-Пт с 18:00 до 22:00 (до появления первых 3-5 скачавших)
 
Не забывайте говорить Спасибо. Не уходите с раздачи!   
Торрент: Зарегистрирован [07 авг 2016, 18:38] Для скачивания .torrent
необходима регистрация
Или скачать с помощью
MediaGet
Статус:
Проверен
 
.torrent скачан: 0 раз
Хэш: 6306c6377cced365b48b7005fb7bd68369438965
Размер: 340.3 МБ (356 831 232 байт)
Стать Автором раздачи
 
 
Раздал: 100 ГБ
Скачал: 0 байт
Ратио: Seed.
Сообщения: 92069
Зарегистрирован: 09 апр 2015, 22:31


  • Похожие торренты
    Ответы
    Просмотры
    Последнее сообщение

Вернуться в Флот

Ресурс не предоставляет электронные версии произведений, а занимается лишь коллекционированием и каталогизацией ссылок, присылаемых и публикуемых на форуме нашими читателями. Если вы являетесь правообладателем какого-либо представленного материала и не желаете чтобы ссылка на него находилась в нашем каталоге, свяжитесь с нами и мы незамедлительно удалим её. Файлы для обмена на трекере предоставлены пользователями сайта, и администрация не несёт ответственности за их содержание. Просьба не заливать файлы, защищенные авторскими правами, а также файлы нелегального содержания!
cron