Линкор "Гнайзенау": флагманский корабль Кригсмарине / Schlachtschiff Gneisenau: Flottenflaggschiff der Kriegsmarine (Карл-Хайнц Гейгер / Karl-Heinz Geiger) [2005, военный, DVD5 (Custom)]

 
 Статистика раздачи 
Размер: 4.28 ГБ   |  Зарегистрирован: 07 авг 2016, 18:05   |   .torrent скачан: 1 раз
Сидеров: 1  [ 0 байт/сек ]     Личеров: 1  [ 0 байт/сек ]  
  

Линкор "Гнайзенау": флагманский корабль Кригсмарине / Schlachtschiff Gneisenau: Flottenflaggschiff der Kriegsmarine (Карл-Хайнц Гейгер / Karl-Heinz Geiger) [2005, военный, DVD5 (Custom)]

Сообщение aLaVodka » 07 авг 2016, 18:05

Линкор "Гнайзенау": флагманский корабль Кригсмарине / Schlachtschiff Gneisenau: Flottenflaggschiff der Kriegsmarine

Год выпуска: 2005
Страна: Германия
Жанр: военный
Продолжительность: 00:46:15
Перевод: Субтитры
Доп. инфо о переводе: D.N.Yu
Русские субтитры: есть

Режиссер: Карл-Хайнц Гейгер / Karl-Heinz Geiger

Описание: Двухсерийный документальный фильм рассказывает историю линкора "Гнайзенау", начиная от чертежей, и заканчивая его гибелью 27 марта 1945 года. Ранее не публиковавшиеся цветные и чёрно-белые кадры кинохроники, часть которых снята членами экипажа в частном порядке, покажут "Гнайзенау" со всех ракурсов. Так же показаны отсеки корабля, его оснащение, силовая установка, вооружение и условия размещения экипажа. Помимо эксплуатации в мирное время, показаны так же и все случаи боевого применения корабля. После прорыва сквозь Ла-Манш, 13 февраля 1942 года "Гнайзенау" сильно пострадал от прямого попадания авиабомбы, которое вывело линкор из строя. 27 марта 1945 года "Гнайзенау" был торпедирован немецкими катерами, чтобы, опустившись на дно, корабль в качестве блокшива перекрыл вход в бухту г. Гдыня.

Доп. информация: Оригинальный диск предоставлен Arias. Перевод субтитрами D.N.Yu. Перевод состоялся благодаря privedenie. Всем спасибо.

Это первая часть фильма, если кто хочет помочь, чтобы состоялись перевод второй части и озвучка обеих, прошу в личку.

Используемое ПО:
PGCDemux (извлечение).
SubtitleCreator (работа с субтитрами).
MuxMan (сборка).
VobBlanker (финал)

Бонусы: фотогалерея, документы, трейлер.

Меню: Есть, озвучено, анимировано.

Релиз:

Сэмпл: http://sendfile.su/1255883

Главы (разбивка по трекам): есть
Качество: DVD5 (Custom)
Формат: DVD Video
Видео кодек: MPEG2
Аудио кодек: AC3
Видео: PAL 4:3 (720x576) VBR, 8000 Кбит/сек
Аудио: Deutsch (Dolby AC3, 2 ch, 192 kbps)
Код: Выделить всё
Size: 4.28 Gb ( 4 489 264,00 KBytes ) - DVD-5
Enabled regions: 1, 2, 3, 4, 5, 6, 7, 8

VTS_01 :
  Play Length: 00:00:55+00:00:19+00:00:16+00:02:02+00:46:15+00:00:00+00:00:05+00:00:03+00:00:03+00:00:03+00:00:03+00:00:03+00:00:03+00:00:03+00:00:03+00:00:03+00:00:03+00:00:03+00:00:03+00:00:03+00:00:03+00:00:03+00:00:03+00:00:03+00:00:03+00:00:03+00:00:03+00:00:03+00:00:03+00:00:03+00:00:03+00:00:03+00:00:00+00:01:05+00:12:15+00:01:00+00:01:28+00:03:25+00:00:00+00:00:00+00:00:00+00:00:00+00:00:00+00:00:00+00:00:00+00:00:00+00:00:00+00:00:00+00:00:00+00:00:00+00:00:00+00:00:00+00:00:00+00:00:00+00:00:00+00:00:00+00:00:00+00:00:00+00:00:00+00:00:00+00:00:00+00:00:00+00:00:00+00:00:00+00:00:00+00:00:00+00:00:00+00:00:00+00:00:00+00:00:00+00:00:00+00:00:00+00:00:00+00:00:00+00:00:00+00:00:00+00:00:00+00:00:00+00:00:00+00:00:00+00:00:00+00:00:00+00:00:00+00:00:00+00:00:00+00:00:00+00:00:00+00:00:00+00:00:00+00:00:00+00:00:00+00:00:00+00:00:00+00:00:00+00:00:00+00:00:00+00:00:00+00:00:00+00:00:00+00:00:00+00:00:00+00:00:00+00:00:00+00:00:00+00:00:00+00:00:00+00:00:00+00:00:00+00:00:00+00:00:00+00:00:00+00:00:00+00:00:00+00:00:00+00:00:00+00:00:00+00:00:00+00:00:00+00:00:00+00:00:00+00:00:00+00:00:00+00:00:00+00:00:00+00:00:00+00:00:00+00:00:00+00:00:00+00:00:00+00:00:00+00:00:00+00:00:00+00:00:00+00:00:00+00:00:00+00:04:18+00:05:35+00:06:10+00:04:31+00:04:36+00:00:00+00:00:00+00:00:00+00:00:00+00:00:00+00:00:00+00:00:00+00:00:00+00:03:20
  Video: PAL 4:3 (720x576) VBR

* Menus Information *

VIDEO_TS Menu
Video:
      PAL 4:3 (720x576) VBR
Audio:
      Not specified (Dolby AC3, 2 ch)
Deutsch Language Unit :
      Title Menu

VTS_01 Menu
Video:
      PAL 4:3 (720x576) VBR
Deutsch Language Unit :
      Root Menu
Код: Выделить всё
Формат                                   : MPEG-PS
Размер файла                             : 1024 Мбайт
Продолжительность                        : 1 м. 8 с.
Общий поток                              : 125 Мбит/сек

Видео
Идентификатор                            : 224 (0xE0)
Формат                                   : MPEG Video
Версия формата                           : Version 2
Профиль формата                          : Main@Main
Параметр BVOP формата                    : Да
Параметр матрицы формата                 : Выборочная
Параметр GOP формата                     : M=3, N=12
Продолжительность                        : 1 м. 8 с.
Битрейт                                  : 123 Мбит/сек
Максимальный битрейт                     : 8000 Кбит/сек
Ширина                                   : 720 пикселей
Высота                                   : 576 пикселей
Соотношение сторон                       : 4:3
Частота кадров                           : 25,000 кадров/сек
Стандарт вещания                         : PAL
Цветовое пространство                    : YUV
Субдискретизация насыщенности            : 4:2:0
Битовая глубина                          : 8 бит
Тип развёртки                            : Чересстрочная
Порядок развёртки                        : Верхнее поле первое
Метод сжатия                             : С потерями
Бит/(Пиксели*Кадры)                      : 11.818
Временной код первого кадра              : 00:00:00:08
Оригинал временного кода                 : Group of pictures header
Размер потока                            : 1002 Мбайт (98%)

Аудио
Идентификатор                            : 189 (0xBD)-128 (0x80)
Формат                                   : AC-3
Формат/Информация                        : Audio Coding 3
Расширение режима                        : CM (complete main)
Параметр Endianness формата              : Big
Режим смешивания                         : DVD-Video
Продолжительность                        : 5 с. 696 мс.
Вид битрейта                             : Постоянный
Битрейт                                  : 192 Кбит/сек
Каналы                                   : 2 канала
Расположение каналов                     : Front: L R
Частота                                  : 48,0 КГц
Битовая глубина                          : 16 бит
Метод сжатия                             : С потерями
Размер потока                            : 134 Кбайт (0%)

Меню
 
Не забывайте говорить Спасибо. Не уходите с раздачи!   
Торрент: Зарегистрирован [07 авг 2016, 18:05] Для скачивания .torrent
необходима регистрация
Или скачать с помощью
MediaGet
Статус:
Проверен
 
.torrent скачан: 1 раз
Хэш: 6d7c17986ad15b9d70eebfc7cc9030e983adca7e
Размер: 4.28 ГБ (4 597 006 336 байт)
Стать Автором раздачи
 
 
Раздал: 100 ГБ
Скачал: 0 байт
Ратио: Seed.
Сообщения: 183322
Зарегистрирован: 09 апр 2015, 20:00


  • Похожие торренты
    Ответы
    Просмотры
    Последнее сообщение

Вернуться в Документальные (DVD)

Кто сейчас на конференции

Сейчас эту тему просматривают: нет зарегистрированных пользователей и гости: 1

Ресурс не предоставляет электронные версии произведений, а занимается лишь коллекционированием и каталогизацией ссылок, присылаемых и публикуемых на форуме нашими читателями. Если вы являетесь правообладателем какого-либо представленного материала и не желаете чтобы ссылка на него находилась в нашем каталоге, свяжитесь с нами и мы незамедлительно удалим её. Файлы для обмена на трекере предоставлены пользователями сайта, и администрация не несёт ответственности за их содержание. Просьба не заливать файлы, защищенные авторскими правами, а также файлы нелегального содержания!