Речные монстры (39 выпускoв) [2010-2015, Документальный цикл, рыбалка, HDTV 1080i]

 
 Статистика раздачи 
Размер: 114.54 ГБ   |  Зарегистрирован: 06 авг 2016, 20:26   |   .torrent скачан: 0 раз
Сидеров: 1  [ 0 байт/сек ]     Личеров: 0  [ 0 байт/сек ]  
  

Речные монстры (39 выпускoв) [2010-2015, Документальный цикл, рыбалка, HDTV 1080i]

Сообщение aLaVodka » 06 авг 2016, 20:26

Речные монстры

Год выпуска: 2010-2015
Страна: Великобритания
Студия: Global Entertainment
Жанр: Документальный цикл, рыбалка
Продолжительность: 00:42:26
Перевод: Профессиональный (двухголосый закадровый)
Русские субтитры: нет

Описание:
Рыбак-экстремал биолог Джереми Уэйд отправляется на охоту за легендарными плотоядными речными чудовищами. Каких же монстров удастся ему обнаружить в мутных водах?
Программа «Речные монстры» - уникальное расследование загадок, скрываемых крупнейшими реками Земли.
Биолог и экстремальный рыболов Джереми Уэйд путешествует по всему миру, собирая истории о нападениях на людей в пресноводных водоёмах неизвестных монстров (которые, обычно, оказываются гигантскими рыбами), а также, иногда рискуя жизнью, ловит их.
IMDb - 8.2

04.08.2016 _ добавил: Год чудовищ
перезаливаем
Азиатский убийца
Американские убийцы
Апокалипсис на Амазонке
Атомный убийца
Африканские хищники
Вампиры глубин
Без следа
Бритвоголовый
Год чудовищ
Гроза джунглей
Доисторический ужас
Канадский ужас
Колумбийский душегуб
Костолом
Кровавая рекa
Легенда озера Лох-Несс
Лучшие моменты. Американские ужасы
Лучшие моменты. Секреты охоты на чудовищ
Лучшие моменты. Смертельно опасные тайны
Лучшие моменты. Худшие кошмары
Лучшие моменты. Чудовища из ниоткуда
Любитель плоти
Людоед
Молчаливый убийца
Монгольский хищник
Монстр из Меконга
Настоящий ужас
Невидимый хищник
Ну и зубки!
Потрошитель лиц
Призрачный убийца
Рыба-пила
Смертельно опасные тайны
Смертельная торпеда
Убийца из джунглей
Убийца из России
Убийца на Аляске
Ужасы на юге Тихого океана
Членовредитель
Электрический палач
Тип релиза: HDTV 1080i
Контейнер: TS

Видео: AVC, 1920x1080, 16:9, 25 fps, 7 672 Kbps
Аудио#1: Russian: 48 kHz, AC3, 6 ch, 384 kbps
Аудио#2: English: 48 kHz, AC3, 6 ch, 384 kbps
Код: Выделить всё
General
ID                                       : 1 (0x1)
Complete name                            : C:\amerikanskie ushasy.ts
Format                                   : MPEG-TS
File size                                : 2.72 GiB
Duration                                 : 43mn 51s
Overall bit rate mode                    : Variable
Overall bit rate                         : 8 887 Kbps

Video
ID                                       : 324 (0x144)
Menu ID                                  : 14104 (0x3718)
Format                                   : AVC
Format/Info                              : Advanced Video Codec
Format profile                           : Main@L4
Format settings, CABAC                   : Yes
Format settings, ReFrames                : 4 frames
Codec ID                                 : 27
Duration                                 : 43mn 52s
Bit rate                                 : 7 672 Kbps
Width                                    : 1 920 pixels
Height                                   : 1 080 pixels
Display aspect ratio                     : 16:9
Frame rate                               : 25.000 fps
Standard                                 : Component
Color space                              : YUV
Chroma subsampling                       : 4:2:0
Bit depth                                : 8 bits
Scan type                                : Interlaced
Scan type, store method                  : Separated fields
Scan order                               : Top Field First
Bits/(Pixel*Frame)                       : 0.148
Stream size                              : 2.35 GiB (86%)
Color range                              : Limited
Color primaries                          : BT.709
Transfer characteristics                 : BT.709
Matrix coefficients                      : BT.709

Audio #1
ID                                       : 404 (0x194)
Menu ID                                  : 14104 (0x3718)
Format                                   : AC-3
Format/Info                              : Audio Coding 3
Mode extension                           : CM (complete main)
Format settings, Endianness              : Big
Codec ID                                 : 6
Duration                                 : 43mn 52s
Bit rate mode                            : Constant
Bit rate                                 : 384 Kbps
Channel(s)                               : 6 channels
Channel positions                        : Front: L C R, Side: L R, LFE
Sampling rate                            : 48.0 KHz
Frame rate                               : 31.250 fps (1536 spf)
Compression mode                         : Lossy
Stream size                              : 121 MiB (4%)
Language                                 : Russian

Audio #2
ID                                       : 414 (0x19E)
Menu ID                                  : 14104 (0x3718)
Format                                   : AC-3
Format/Info                              : Audio Coding 3
Mode extension                           : CM (complete main)
Format settings, Endianness              : Big
Codec ID                                 : 6
Duration                                 : 43mn 52s
Bit rate mode                            : Constant
Bit rate                                 : 384 Kbps
Channel(s)                               : 6 channels
Channel positions                        : Front: L C R, Side: L R, LFE
Sampling rate                            : 48.0 KHz
Frame rate                               : 31.250 fps (1536 spf)
Compression mode                         : Lossy
Stream size                              : 121 MiB (4%)
Language                                 : English
 
Не забывайте говорить Спасибо. Не уходите с раздачи!   
Торрент: Зарегистрирован [06 авг 2016, 20:26] Для скачивания .torrent
необходима регистрация
Или скачать с помощью
MediaGet
Статус:
Проверен
 
.torrent скачан: 0 раз
Хэш: 38562a15324309d9a40ff0a4e9e0b7b4d9b348eb
Размер: 114.54 ГБ (122 985 182 376 байт)
Стать Автором раздачи
 
 
Раздал: 100 ГБ
Скачал: 0 байт
Ратио: Seed.
Сообщения: 186623
Зарегистрирован: 09 апр 2015, 20:00


  • Похожие торренты
    Ответы
    Просмотры
    Последнее сообщение

Вернуться в Флора и фауна (HD Video)

Кто сейчас на конференции

Сейчас эту тему просматривают: нет зарегистрированных пользователей и гости: 1

Ресурс не предоставляет электронные версии произведений, а занимается лишь коллекционированием и каталогизацией ссылок, присылаемых и публикуемых на форуме нашими читателями. Если вы являетесь правообладателем какого-либо представленного материала и не желаете чтобы ссылка на него находилась в нашем каталоге, свяжитесь с нами и мы незамедлительно удалим её. Файлы для обмена на трекере предоставлены пользователями сайта, и администрация не несёт ответственности за их содержание. Просьба не заливать файлы, защищенные авторскими правами, а также файлы нелегального содержания!