Чудеса инженерии: Субмарина апокалипсиса / Big Bigger Biggest: Submarine (2009) HDTV [H.264/1080i]

 
 Статистика раздачи 
Размер: 3.12 ГБ   |  Зарегистрирован: 05 авг 2016, 22:17   |   .torrent скачан: 1 раз
Сидеров: 1  [ 0 байт/сек ]     Личеров: 0  [ 0 байт/сек ]  
  

Чудеса инженерии: Субмарина апокалипсиса / Big Bigger Biggest: Submarine (2009) HDTV [H.264/1080i]

Сообщение explosiveone » 05 авг 2016, 22:17

Чудеса инженерии: Субмарина апокалипсиса / Big Bigger Biggest: Submarine (2009) HDTV [H.264/1080i]

Телекомпания: США, Великобритания, National Geographic Channel
Жанр: Документальный

Участники: Режиссер: Martin Gorst

Описание:
Крупнейшая субмарина ВМС США Пенсильвания способна оставаться под водой до 6 месяцев. Исследуйте 6 подлодок, на базе которых она была создана. В течение сорока лет холодной войны субмарины рыскали в глубинах моря. Узнайте, как подводные лодки помогли закончить холодную войну.



Продолжительность: 00:46:59
Качество видео: HDTV [1080i]
Перевод: Одноголосый закадровый, профессиональный

Видео: AVC/H.264, 1920х1080, ~9112 Kbps
Аудио: MP2, 2 ch, 192 Kbps, CBR
Код:
Код: Выделить всё
Общее
Уникальный идентификатор                 : 194731132052278182378775937026953726616 (0x927FDA11B003FCF2B298C171D10E4A98)
Полное имя                               : Big_Bigger Biggest_Submarine_HD.mp4
Формат                                   : Matroska
Версия формата                           : Version 2
Размер файла                             : 3,12 Гбайт
Продолжительность                        : 46 м.
Общий поток                              : 9493 Кбит/сек
Дата кодирования                         : UTC 2013-03-10 20:22:33
Программа кодирования                    : mkvmerge v5.7.0 ('The Whirlwind') built on Jul 29 2012 15:12:35
Библиотека кодирования                   : libebml v1.2.3 + libmatroska v1.3.0

Видео
Идентификатор                            : 1
Формат                                   : AVC
Формат/Информация                        : Advanced Video Codec
Профиль формата                          :
Параметр CABAC формата                   : Да
Параметр ReFrames формата                : 4 кадра
Режим смешивания                         : Header stripping
Идентификатор кодека                     : V_MPEG4/ISO/AVC
Продолжительность                        : 46 м.
Битрейт                                  : 9112 Кбит/сек
Ширина                                   : 1920 пикселей
Высота                                   : 1080 пикселей
Соотношение сторон                       : 16:9
Режим частоты кадров                     : Постоянный
Частота кадров                           : 25,000 кадров/сек
Стандарт вещания                         : Component
Цветовое пространство                    : YUV
Субдискретизация насыщенности            : 4:2:0
Битовая глубина                          : 8 бит
Тип развёртки                            : Чересстрочная
Порядок развёртки                        : Нижнее поле первое
Бит/(Пиксели*Кадры)                      : 0.176
Размер потока                            : 2,99 Гбайт (96%)
Язык                                     : Russian
Default                                  : Да
Forced                                   : Нет
Основные цвета                           : BT.709
Характеристики трансфера                 : BT.709
Коэффициенты матрицы                     : BT.709

Аудио
Идентификатор                            : 2
Формат                                   : MPEG Audio
Версия формата                           : Version 1
Профиль формата                          : Layer 2
Режим смешивания                         : Header stripping
Идентификатор кодека                     : A_MPEG/L2
Идентификатор кодека/Подсказка           : MP2
Продолжительность                        : 46 м.
Вид битрейта                             : Постоянный
Битрейт                                  : 192 Кбит/сек
Каналы                                   : 2 канала
Частота                                  : 48,0 КГц
Метод сжатия                             : С потерями
Задержка видео                           : 127 мс.
Размер потока                            : 64,5 Мбайт (2%)
Язык                                     : Russian
Default                                  : Да
Forced                                   : Нет

Скриншоты:




Время раздачи: Пн-Пт с 18:00 до 22:00 (до появления первых 3-5 скачавших)
 
Не забывайте говорить Спасибо. Не уходите с раздачи!   
Торрент: Зарегистрирован [05 авг 2016, 22:17] Для скачивания .torrent
необходима регистрация
Или скачать с помощью
MediaGet
Статус:
Проверен
 
.torrent скачан: 1 раз
Хэш: 2c724c10a941d9f55206b8c3e5158a0d5eb42fd9
Размер: 3.12 ГБ (3 345 578 658 байт)
Стать Автором раздачи
 
 
Раздал: 100 ГБ
Скачал: 0 байт
Ратио: Seed.
Сообщения: 82466
Зарегистрирован: 09 апр 2015, 22:31


  • Похожие торренты
    Ответы
    Просмотры
    Последнее сообщение

Вернуться в Флот

Кто сейчас на конференции

Сейчас эту тему просматривают: нет зарегистрированных пользователей и гости: 1

Ресурс не предоставляет электронные версии произведений, а занимается лишь коллекционированием и каталогизацией ссылок, присылаемых и публикуемых на форуме нашими читателями. Если вы являетесь правообладателем какого-либо представленного материала и не желаете чтобы ссылка на него находилась в нашем каталоге, свяжитесь с нами и мы незамедлительно удалим её. Файлы для обмена на трекере предоставлены пользователями сайта, и администрация не несёт ответственности за их содержание. Просьба не заливать файлы, защищенные авторскими правами, а также файлы нелегального содержания!