Взгляд изнутри. Суперавианосец / Inside. Super Carrier (2006) HDTV [H.264/720i]

 
 Статистика раздачи 
Размер: 1.56 ГБ   |  Зарегистрирован: 05 авг 2016, 20:19   |   .torrent скачан: 1 раз
Сидеров: 1  [ 0 байт/сек ]     Личеров: 0  [ 0 байт/сек ]  
  

Взгляд изнутри. Суперавианосец / Inside. Super Carrier (2006) HDTV [H.264/720i]

Сообщение explosiveone » 05 авг 2016, 20:19

Взгляд изнутри. Суперавианосец / Inside. Super Carrier (2006) HDTV [H.264/720i]

Телекомпания: США, National Geographic
Жанр: Документальный

Участники: Режиссер: Гэйл Фланниган

Описание:
Этот гигант провёл 4 года в доках, его капитальный ремонт стоил два с половиной миллиарда долларов. Но эти деньги не были потрачены впустую - в строй вернулся "Эйзенхауэр", судно, которое теперь по праву носит звание авианосца XXI века. Его размеры поражают - высотой с 24-этажный дом, этот корабль весит 97000 тонн. Перед тем, как встать на боевое дежурство, "Эйзенхауэр" и его команда должны пройти суровое испытание - 14 дней учений, в условиях, максимально приближенных к боевым. 85 штурмовиков на палубе авианосца и группа поддержки из ракетных крейсеров, эсминцев и субмарины класса Лос-Анджелес обязаны выполнить все поставленные задачи. Канал National Geographic оказался в самой гуще событий. Атмосферу постоянного напряжения и смертельного риска передадут кадры из кабин пилотов, с палубы, на которой круглосуточно кипит работа, и капитанского мостика. Отсюда ведётся руководство командой из 6000 человек, обеспечивающей безупречно слаженную работу этого чуда конструкторской мысли.

Продолжительность: 00:46:56
Качество видео: HDTV [720i]
Перевод: Одноголосый закадровый, профессиональный

Видео: AVC/H.264, 1280х720, ~4100 Kbps
Аудио: AC3, 6 ch, 448 Kbps, CBR
Код:
Код: Выделить всё
Общее
Идентификатор                            : 0 (0x0)
Полное имя                               : Inside_Super_Carrier_HD_.mp4
Формат                                   : BDAV
Формат/Информация                        : Blu-ray Video
Размер файла                             : 1,56 Гбайт
Продолжительность                        : 46 м.
Режим общего битрейта                    : Переменный
Общий поток                              : 4744 Кбит/сек
Максимальный общий битрейт               : 2760 Кбит/сек

Видео
Идентификатор                            : 4113 (0x1011)
Идентификатор меню                       : 1 (0x1)
Формат                                   : AVC
Формат/Информация                        : Advanced Video Codec
Профиль формата                          :
Параметр CABAC формата                   : Да
Параметр ReFrames формата                : 4 кадра
Параметр GOP формата                     : M=3, N=33
Идентификатор кодека                     : 27
Продолжительность                        : 46 м.
Вид битрейта                             : Переменный
Битрейт                                  : 4100 Кбит/сек
Максимальный битрейт                     : 8000 Кбит/сек
Ширина                                   : 1280 пикселей
Высота                                   : 720 пикселей
Соотношение сторон                       : 16:9
Частота кадров                           : 25,000 кадров/сек
Цветовое пространство                    : YUV
Субдискретизация насыщенности            : 4:2:0
Битовая глубина                          : 8 бит
Тип развёртки                            : Прогрессивная
Бит/(Пиксели*Кадры)                      : 0.178
Размер потока                            : 1,34 Гбайт (86%)
Основные цвета                           : BT.709
Характеристики трансфера                 : BT.709
Коэффициенты матрицы                     : BT.709

Аудио
Идентификатор                            : 4352 (0x1100)
Идентификатор меню                       : 1 (0x1)
Формат                                   : AC-3
Формат/Информация                        : Audio Coding 3
Расширение режима                        : CM (complete main)
Параметр Endianness формата              : Big
Идентификатор кодека                     : 129
Продолжительность                        : 46 м.
Вид битрейта                             : Постоянный
Битрейт                                  : 448 Кбит/сек
Каналы                                   : 6 каналов
Расположение каналов                     : Front: L C R, Side: L R, LFE
Частота                                  : 48,0 КГц
Битовая глубина                          : 16 бит
Метод сжатия                             : С потерями
Размер потока                            : 150 Мбайт (9%)

Скриншоты:




Время раздачи: Пн-Пт с 18:00 до 22:00 (до появления первых 3-5 скачавших)
 
Не забывайте говорить Спасибо. Не уходите с раздачи!   
Торрент: Зарегистрирован [05 авг 2016, 20:19] Для скачивания .torrent
необходима регистрация
Или скачать с помощью
MediaGet
Статус:
Проверен
 
.torrent скачан: 1 раз
Хэш: 624023cbbde319b0ed3b253628041c7cf4bfc323
Размер: 1.56 ГБ (1 671 173 760 байт)
Стать Автором раздачи
 
 
Раздал: 100 ГБ
Скачал: 0 байт
Ратио: Seed.
Сообщения: 82467
Зарегистрирован: 09 апр 2015, 22:31


  • Похожие торренты
    Ответы
    Просмотры
    Последнее сообщение

Вернуться в Флот

Кто сейчас на конференции

Сейчас эту тему просматривают: нет зарегистрированных пользователей и гости: 1

Ресурс не предоставляет электронные версии произведений, а занимается лишь коллекционированием и каталогизацией ссылок, присылаемых и публикуемых на форуме нашими читателями. Если вы являетесь правообладателем какого-либо представленного материала и не желаете чтобы ссылка на него находилась в нашем каталоге, свяжитесь с нами и мы незамедлительно удалим её. Файлы для обмена на трекере предоставлены пользователями сайта, и администрация не несёт ответственности за их содержание. Просьба не заливать файлы, защищенные авторскими правами, а также файлы нелегального содержания!