Смешарики. Легенда о золотом драконе (2016) HDRip [H.264] [MP4|720x428@1024x428]

 
 Статистика раздачи 
Размер: 939.13 МБ   |  Зарегистрирован: 05 авг 2016, 12:11   |   .torrent скачан: 0 раз
Сидеров: 1  [ 0 байт/сек ]     Личеров: 0  [ 0 байт/сек ]  
  

Смешарики. Легенда о золотом драконе (2016) HDRip [H.264] [MP4|720x428@1024x428]

Сообщение explosiveone » 05 авг 2016, 12:11

Смешарики. Легенда о золотом драконе (2016) HDRip

«Предпоследняя надежда человечества»
Производство: Россия, Art Pictures Studio, Студия Анимации «Петербург»
Жанр: Мультфильм, Приключения, Комедия

Режиссер: Денис Чернов
Актеры: Михаил Черняк, Сергей Мардарь, Антон Виноградов, Владимир Постников, Светлана Письмиченко, Вадим Бочанов, Гарик Харламов, Дмитрий Нагиев, Елена Шульман, Владимир Маслаков

Описание:
Выдающийся учёный и его команда отправляются в самое сердце диких джунглей, где их ждут опасные приключения, свирепые туземцы и расхитители гробниц, до зубов вооруженные гаджетами.


Возраст: 6+ (зрителям, достигшим 6 лет)

Продолжительность: 01:20:15
Качество видео: HDRip
Перевод: Не требуется,русский -Лицензия
Вид субтитров: Отсутствуют

Видео: AVC/H.264 (Main@L3.1), 720x428@1024x428 (2.40:1), 1500 Кбит/сек
Аудио #1: AAC, 2 канала, 128 Кбит/сек - русский
Код:
Код: Выделить всё
General
Complete name               : C:\CREATE\264mod1\out\Смешарики. Легенда о золотом драконе.2016.576p.BDRip.AAC.mp4
Format                      : MPEG-4
Format profile              : Base Media
Codec ID                    : isom (isom/avc1)
File size                   : 939 MiB
Duration                    : 1 h 20 min
Overall bit rate mode       : Variable
Overall bit rate            : 1 636 kb/s
Movie name                  : Смешарики. Легенда о золотом драконе
Performer                   : Денис Чернов
Director                    : Денис Чернов
Actor                       : Михаил Черняк / Сергей Мардарь / Антон Виноградов / Владимир Постников / Светлана Письмиченко / Вадим Бочанов / Гарик Харламов / Дмитрий Нагиев / Елена Шульман / Владимир Маслаков
Screenplay by               : Денис Чернов / Дмитрий Яковенко
Producer                    : Илья Попов / Анатолий Прохоров / Фёдор Бондарчук
Genre                       : Animation
ContentType                 : Short Film
Description                 : Выдающийся учёный и его команда отправляются в самое сердце диких джунглей, где их ждут опасные приключения, свирепые туземцы и расхитители гробниц, до зубов вооруженные гаджетами.
Recorded date               : 2016-03-16
Encoded date                : UTC 2016-08-05 06:35:04
Tagged date                 : UTC 2016-08-05 07:00:45
Cover                       : Yes
Comment                     : «Предпоследняя надежда человечества»
Rating                      : None
Title/Sort                  : Смешарики. Легенда о золотом драконе
LongDescription             : Выдающийся учёный и его команда отправляются в самое сердце диких джунглей, где их ждут опасные приключения, свирепые туземцы и расхитители гробниц, до зубов вооруженные гаджетами.
ContentRating               : mpaa|G|100|

Video
ID                          : 1
Format                      : AVC
Format/Info                 : Advanced Video Codec
Format profile              :
Format settings, CABAC      : No
Format settings, ReFrames   : 4 frames
Codec ID                    : avc1
Codec ID/Info               : Advanced Video Coding
Duration                    : 1 h 20 min
Bit rate                    : 1 500 kb/s
Maximum bit rate            : 9 494 kb/s
Width                       : 720 pixels
Height                      : 428 pixels
Display aspect ratio        : 2.40:1
Frame rate mode             : Constant
Frame rate                  : 23.976 (24000/1001) FPS
Color space                 : YUV
Chroma subsampling          : 4:2:0
Bit depth                   : 8 bits
Scan type                   : Progressive
Bits/(Pixel*Frame)          : 0.203
Stream size                 : 861 MiB (92%)
Writing library             : x264 core 148 r2705+54 9f484c1 t_mod_Custom [8-bit@all X86_64]
Encoding settings           : cabac=0 / ref=4 / deblock=1:0:0 / analyse=0x1:0x111 / me=umh / subme=8 / psy=1 / fade_compensate=0.00 / psy_rd=1.00:0.15 / mixed_ref=1 / me_range=32 / chroma_me=1 / trellis=2 / 8x8dct=0 / cqm=0 / deadzone=21,11 / fast_pskip=0 / chroma_qp_offset=-3 / threads=12 / lookahead_threads=2 / sliced_threads=0 / nr=0 / decimate=0 / interlaced=0 / bluray_compat=0 / constrained_intra=0 / fgo=0 / bframes=3 / b_pyramid=2 / b_adapt=2 / b_bias=0 / direct=3 / weightb=1 / open_gop=0 / weightp=2 / keyint=240 / keyint_min=23 / scenecut=40 / intra_refresh=0 / rc_lookahead=40 / rc=2pass / mbtree=1 / bitrate=1500 / ratetol=1.0 / qcomp=0.60 / qpmin=0:0:0 / qpmax=69:69:69 / qpstep=4 / cplxblur=20.0 / qblur=0.5 / vbv_maxrate=14000 / vbv_bufsize=14000 / nal_hrd=none / filler=0 / ip_ratio=1.40 / aq=3:0.90 / aq-sensitivity=10.00 / aq-factor=1.00:1.00:1.00 / aq2=0 / aq3=3:[0.45:0.45]:[0.50:0.50]:[0.50:0.55]:[0.55:0.55] / aq3-sensitivity=10.00 / aq3-factor=[1.00:1.00]:[1.00:1.00]:[1.00:1.00] / aq3-boundary=205:56:9
Language                    : English
Encoded date                : UTC 2016-08-05 06:35:04
Tagged date                 : UTC 2016-08-05 06:35:13
Color range                 : Limited
Matrix coefficients         : BT.709
Menus                       : 3

Audio
ID                          : 2
Format                      : AAC
Format/Info                 : Advanced Audio Codec
Format profile              : LC
Codec ID                    : 40
Duration                    : 1 h 20 min
Bit rate mode               : Variable
Bit rate                    : 128 kb/s
Maximum bit rate            : 134 kb/s
Channel(s)                  : 2 channels
Channel positions           : Front: L R
Sampling rate               : 48.0 kHz
Frame rate                  : 46.875 FPS (1024 spf)
Compression mode            : Lossy
Stream size                 : 73.5 MiB (8%)
Language                    : Russian
Default                     : Yes
Alternate group             : 1
Encoded date                : UTC 2016-08-05 06:35:11
Tagged date                 : UTC 2016-08-05 06:35:13

Menu
ID                          : 3
Codec ID                    : text
Duration                    : 1 h 20 min
Encoded date                : UTC 2016-08-05 06:35:29
Tagged date                 : UTC 2016-08-05 06:35:29
Bit rate mode               : CBR
Menu For                    : 1
00:00:00.000                : 01
00:11:51.961                : 02
00:20:18.634                : 03
00:30:19.567                : 04
00:39:01.839                : 05
00:50:24.021                : 06
00:59:05.833                : 07
01:09:52.479                : 08

Скриншоты:


Время раздачи: 24/7 (круглосуточно) (до появления первых 3-5 скачавших)
 
Не забывайте говорить Спасибо. Не уходите с раздачи!   
Торрент: Зарегистрирован [05 авг 2016, 12:11] Для скачивания .torrent
необходима регистрация
Или скачать с помощью
MediaGet
Статус:
Проверен
 
.torrent скачан: 0 раз
Хэш: fc669ec7f8516ded64f1f9e8f8055befbd87bde0
Размер: 939.13 МБ (984 750 949 байт)
Стать Автором раздачи
 
 
Раздал: 100 ГБ
Скачал: 0 байт
Ратио: Seed.
Сообщения: 94059
Зарегистрирован: 09 апр 2015, 22:31


  • Похожие торренты
    Ответы
    Просмотры
    Последнее сообщение

Вернуться в Видео для мобильных устройств

Ресурс не предоставляет электронные версии произведений, а занимается лишь коллекционированием и каталогизацией ссылок, присылаемых и публикуемых на форуме нашими читателями. Если вы являетесь правообладателем какого-либо представленного материала и не желаете чтобы ссылка на него находилась в нашем каталоге, свяжитесь с нами и мы незамедлительно удалим её. Файлы для обмена на трекере предоставлены пользователями сайта, и администрация не несёт ответственности за их содержание. Просьба не заливать файлы, защищенные авторскими правами, а также файлы нелегального содержания!
cron