Кто потопил "Бисмарк"? / Who Sank The Bismarck? (2010) HDTV [H.264/1080i]

 
 Статистика раздачи 
Размер: 3.36 ГБ   |  Зарегистрирован: 05 авг 2016, 00:07   |   .torrent скачан: 0 раз
Сидеров: 1  [ 0 байт/сек ]     Личеров: 0  [ 0 байт/сек ]  
  

Кто потопил "Бисмарк"? / Who Sank The Bismarck? (2010) HDTV [H.264/1080i]

Сообщение explosiveone » 05 авг 2016, 00:07

Кто потопил "Бисмарк"? / Who Sank The Bismarck? (2010) HDTV [H.264/1080i]

Телекомпания: США, National Geographic Channel
Жанр: Документальный

Участники: Режиссеры: Джулия Ноблок, Адам Гейджер

Описание:
На дне Атлантического океана покоится немецкий корабль. В начале Второй мировой войны одно его название внушало страх - "Бисмарк" - машина смерти, последнее слово техники. Тяжеловооруженный корабль. Королевский флот тщетно пытался остановить корабль. Мы шаг за шагом отследим первое и последнее плавание "Бисмарка". А помогут нам свидетельства последних очевидцев и осмотр останков корабля. Мы реконструируем сражение, в ходе которого затонул самый мощный корабль в истории.

Продолжительность: 00:45:01
Качество видео: HDTV [1080i]
Перевод: Одноголосый закадровый, профессиональный

Видео: AVC/H.264, 1920х1080, ~10 100 kbps
Аудио: MP2, 2 ch, 192 Kbps, CBR
Код:
Код: Выделить всё
Общее
Идентификатор                            : 1 (0x1)
Полное имя                               : Who sank the Bismarck_HD.m2ts
Формат                                   : BDAV
Формат/Информация                        : Blu-ray Video
Размер файла                             : 3,36 Гбайт
Продолжительность                        : 45 м.
Режим общего битрейта                    : Переменный
Общий поток                              : 10,7 Мбит/сек

Видео
Идентификатор                            : 4113 (0x1011)
Идентификатор меню                       : 1 (0x1)
Формат                                   : AVC
Формат/Информация                        : Advanced Video Codec
Профиль формата                          :
Параметр CABAC формата                   : Да
Параметр ReFrames формата                : 3 кадра
Идентификатор кодека                     : 27
Продолжительность                        : 45 м.
Битрейт                                  : 10,1 Мбит/сек
Ширина                                   : 1920 пикселей
Высота                                   : 1080 пикселей
Соотношение сторон                       : 16:9
Частота кадров                           : 25,000 кадров/сек
Стандарт вещания                         : PAL
Цветовое пространство                    : YUV
Субдискретизация насыщенности            : 4:2:0
Битовая глубина                          : 8 бит
Тип развёртки                            : Чересстрочная
Порядок развёртки                        : Верхнее поле первое
Бит/(Пиксели*Кадры)                      : 0.194
Размер потока                            : 3,17 Гбайт (94%)
Основные цвета                           : BT.709
Характеристики трансфера                 : BT.709
Коэффициенты матрицы                     : BT.709

Аудио
Идентификатор                            : 4352 (0x1100)
Идентификатор меню                       : 1 (0x1)
Формат                                   : MPEG Audio
Версия формата                           : Version 1
Профиль формата                          : Layer 2
Идентификатор кодека                     : 4
Продолжительность                        : 45 м.
Вид битрейта                             : Постоянный
Битрейт                                  : 192 Кбит/сек
Каналы                                   : 2 канала
Частота                                  : 48,0 КГц
Метод сжатия                             : С потерями
Задержка видео                           : 129 мс.
Размер потока                            : 61,8 Мбайт (2%)
Язык                                     : std
Язык, дополнительно                      : Clean effects

Скриншоты:



Время раздачи: Пн-Пт с 18:00 до 22:00 (до появления первых 3-5 скачавших)
 
Не забывайте говорить Спасибо. Не уходите с раздачи!   
Торрент: Зарегистрирован [05 авг 2016, 00:07] Для скачивания .torrent
необходима регистрация
Или скачать с помощью
MediaGet
Статус:
Проверен
 
.torrent скачан: 0 раз
Хэш: ddbdd391672d857659f61f79c89d46da25e52255
Размер: 3.36 ГБ (3 611 185 152 байт)
Стать Автором раздачи
 
 
Раздал: 100 ГБ
Скачал: 0 байт
Ратио: Seed.
Сообщения: 82471
Зарегистрирован: 09 апр 2015, 22:31


  • Похожие торренты
    Ответы
    Просмотры
    Последнее сообщение

Вернуться в Флот

Кто сейчас на конференции

Сейчас эту тему просматривают: нет зарегистрированных пользователей и гости: 1

Ресурс не предоставляет электронные версии произведений, а занимается лишь коллекционированием и каталогизацией ссылок, присылаемых и публикуемых на форуме нашими читателями. Если вы являетесь правообладателем какого-либо представленного материала и не желаете чтобы ссылка на него находилась в нашем каталоге, свяжитесь с нами и мы незамедлительно удалим её. Файлы для обмена на трекере предоставлены пользователями сайта, и администрация не несёт ответственности за их содержание. Просьба не заливать файлы, защищенные авторскими правами, а также файлы нелегального содержания!