Город грехов / Sin City & Город грехов 2: Женщина, ради которой стоит убивать / Sin City 2: A Dame To Kill For (2005, 2014) [H.264] [MP4|720x552@1024x552] [Дилогия]

 
 Статистика раздачи 
Размер: 3.11 ГБ   |  Зарегистрирован: 05 авг 2016, 00:05   |   .torrent скачан: 0 раз
Сидеров: 1  [ 0 байт/сек ]     Личеров: 0  [ 0 байт/сек ]  
  

Город грехов / Sin City & Город грехов 2: Женщина, ради которой стоит убивать / Sin City 2: A Dame To Kill For (2005, 2014) [H.264] [MP4|720x552@1024x552] [Дилогия]

Сообщение explosiveone » 05 авг 2016, 00:05

Город грехов / Sin City & Город грехов 2: Женщина, ради которой стоит убивать / Sin City 2: A Dame To Kill For (2005, 2014) [H.264] [Дилогия]

Город грехов / Sin City (2005) HDRip [H.264]

«Deadly little Miho»
Производство: США, Dimension Films, Troublemaker Studios
Жанр: Боевик, Триллер, Криминал

Режиссер: Фрэнк Миллер, Роберт Родригес, Квентин Тарантино
Актеры: Брюс Уиллис, Микки Рурк, Клайв Оуэн, Розарио Доусон, Джессика Альба, Бенисио Дель Торо, Джейми Кинг, Ник Стал, Девон Аоки, Алексис Бледел

Описание:
Город грехов — это адская бездна преступлений. Один из его жителей пытается найти убийцу своей подруги. Другой, фотограф, случайно становится свидетелем убийства полицейского и старается скрыть преступление. Спуститесь по глухому переулку города, и вы найдете кое-что еще. В Городе грехов полиция коррумпирована и улицы смертельно опасны…


Возраст: 16+ (зрителям, достигшим 16 лет)
Рейтинг MPAA: R (лицам до 17 лет обязательно присутствие взрослого)

Продолжительность: 02:04:04
Качество видео: HDRip
Перевод: Дублированный
Язык субтитров: Русский, Английский
Вид субтитров: Вшитые

Видео: AVC/H.264 (Main@L3.1), 720x552@1024x552 (1.85:1), 1700 Кбит/сек
Аудио #1: AAC, 2 канала, 128 Кбит/сек - русский
Аудио #2: AAC, 2 канала, 128 Кбит/сек - английский (оригинальный)
Код:
Код: Выделить всё
General
Complete name               : C:\CREATE\264mod1\out\Sin.City.2005.576p.HDRip.AAC.NNMclub.mp4
Format                      : MPEG-4
Format profile              : Base Media
Codec ID                    : isom (isom/avc1)
File size                   : 1.71 GiB
Duration                    : 2 h 4 min
Overall bit rate mode       : Variable
Overall bit rate            : 1 969 kb/s
Movie name                  : Sin City
Performer                   : Quentin Tarantino, Frank Miller & Robert Rodriguez
Director                    : Robert Rodriguez / Monika Petrillo / Frank Miller
Actor                       : Jessica Alba (Nancy Callahan) / Devon Aoki (Miho) / Alexis Bledel (Becky) / Powers Boothe (Senator Roark) / Rosario Dawson (Gail) / Benicio del Toro (Jackie Boy) / Michael Clarke Duncan (Manute) / Carla Gugino (Lucille) / Josh Hartnett (The Salesman) / Rutger Hauer (Cardinal Roark) / Jaime King (Goldie/Wendy) / Michael Madsen (Bob) / Brittany Murphy (Shellie) / Clive Owen (Dwight McCarthy) / Mickey Rourke (Marv) / Nick Stahl (Roark Jr./The Yellow Bastard) / Bruce Willis (Hartigan) / Elijah Wood (Kevin) / Jude Ciccolella (Liebowitz) / Jeffrey J. Dashnaw (Motorcycle Cop) / Jesse De Luna (Corporal Rivera) / Jason Douglas (Hitman) / Tommy Flanagan (Brian) / Rick Gomez (Douglas Klump) / David H. Hickey (Juicer) / Greg Ingram (Bouncer) / Nicky Katt (Stuka) / Helen Kirk (Maeve) / Ethan Maniquis (Bozo #1) / John McLeod (Mercenary) / Frank Miller (Priest) / Lisa Marie Newmyer (Tammy) / Tommy Nix (Weevil) / Nick Offerman (Burt Shlubb) / Marco Perella (Skinny Dude) / Randal Reeder (Man w/ Hitman) / Jeff Schwan (Louie) / Marley Shelton (The Customer) / Korey Simeone (Priest #2) / Paul T. Taylor (Assistant DA) / Ken Thomas (Bozo #2) / Rico Torres (Cop #2) / Makenzie Vega (Nancy (11 Years)) / Arie Verveen (Murphy) / Patricia Vonne (Dallas) / Chris Warner (Bozo #3)
Screenplay by               : Frank Miller / Frank Miller / Frank Miller
Producer                    : Elizabeth Avellan / Mary Vernieu / Bill Scott / Bob Weinstein / Harvey Weinstein / Ron Schmidt / Cynthia Streit / Linda A. Borgeson / Shalimar Reodica / Beth Sepko
Genre                       : Action & Adventure
ContentType                 : Short Film
Description                 : Город грехов — это адская бездна преступлений. Один из его жителей пытается найти убийцу своей подруги. Другой, фотограф, случайно становится свидетелем убийства полицейского и старается скрыть преступление. Спуститесь по глухому переулку города, и в
Recorded date               : UTC 2005-04-01 08:00:00
Encoded date                : UTC 2016-08-04 18:16:03
Tagged date                 : UTC 2016-08-04 18:49:18
Cover                       : Yes
Rating                      : None
Title/Sort                  : Sin City
LongDescription             : Город грехов — это адская бездна преступлений. Один из его жителей пытается найти убийцу своей подруги. Другой, фотограф, случайно становится свидетелем убийства полицейского и старается скрыть преступление. Спуститесь по глухому переулку города, и вы найдете кое-что еще. В Городе грехов полиция коррумпирована и улицы смертельно опасны…
ContentRating               : mpaa|R|400|

Video
ID                          : 1
Format                      : AVC
Format/Info                 : Advanced Video Codec
Format profile              :
Format settings, CABAC      : No
Format settings, ReFrames   : 4 frames
Codec ID                    : avc1
Codec ID/Info               : Advanced Video Coding
Duration                    : 2 h 4 min
Bit rate                    : 1 700 kb/s
Maximum bit rate            : 14.9 Mb/s
Width                       : 720 pixels
Height                      : 552 pixels
Display aspect ratio        : 1.85:1
Frame rate mode             : Constant
Frame rate                  : 23.976 (24000/1001) FPS
Color space                 : YUV
Chroma subsampling          : 4:2:0
Bit depth                   : 8 bits
Scan type                   : Progressive
Bits/(Pixel*Frame)          : 0.178
Stream size                 : 1.47 GiB (86%)
Writing library             : x264 core 148 r2705 3f5ed56
Encoding settings           : cabac=0 / ref=4 / deblock=1:-1:-1 / analyse=0x1:0x131 / me=umh / subme=7 / psy=1 / psy_rd=1.00:0.25 / mixed_ref=1 / me_range=32 / chroma_me=1 / trellis=2 / 8x8dct=0 / cqm=0 / deadzone=21,11 / fast_pskip=0 / chroma_qp_offset=-4 / threads=17 / lookahead_threads=2 / sliced_threads=0 / nr=0 / decimate=0 / interlaced=0 / bluray_compat=0 / constrained_intra=0 / bframes=3 / b_pyramid=2 / b_adapt=2 / b_bias=0 / direct=3 / weightb=1 / open_gop=0 / weightp=2 / keyint=240 / keyint_min=23 / scenecut=40 / intra_refresh=0 / rc_lookahead=40 / rc=2pass / mbtree=1 / bitrate=1700 / ratetol=1.0 / qcomp=0.80 / qpmin=0 / qpmax=69 / qpstep=4 / cplxblur=20.0 / qblur=0.5 / vbv_maxrate=14000 / vbv_bufsize=14000 / nal_hrd=none / filler=0 / ip_ratio=1.10 / aq=1:0.50
Language                    : English
Encoded date                : UTC 2016-08-04 18:16:03
Tagged date                 : UTC 2016-08-04 18:16:23
Color range                 : Limited
Matrix coefficients         : BT.709
Menus                       : 6

Audio #1
ID                          : 2
Format                      : AAC
Format/Info                 : Advanced Audio Codec
Format profile              : LC
Codec ID                    : 40
Duration                    : 2 h 4 min
Bit rate mode               : Variable
Bit rate                    : 128 kb/s
Maximum bit rate            : 132 kb/s
Channel(s)                  : 2 channels
Channel positions           : Front: L R
Sampling rate               : 48.0 kHz
Frame rate                  : 46.875 FPS (1024 spf)
Compression mode            : Lossy
Stream size                 : 114 MiB (6%)
Language                    : Russian
Default                     : Yes
Alternate group             : 1
Encoded date                : UTC 2016-08-04 18:16:15
Tagged date                 : UTC 2016-08-04 18:16:23

Audio #2
ID                          : 3
Format                      : AAC
Format/Info                 : Advanced Audio Codec
Format profile              : LC
Codec ID                    : 40
Duration                    : 2 h 4 min
Bit rate mode               : Variable
Bit rate                    : 128 kb/s
Maximum bit rate            : 133 kb/s
Channel(s)                  : 2 channels
Channel positions           : Front: L R
Sampling rate               : 48.0 kHz
Frame rate                  : 46.875 FPS (1024 spf)
Compression mode            : Lossy
Stream size                 : 114 MiB (6%)
Language                    : English
Default                     : No
Alternate group             : 1
Encoded date                : UTC 2016-08-04 18:16:19
Tagged date                 : UTC 2016-08-04 18:16:23

Text #1
ID                          : 4
Format                      : Timed Text
Muxing mode                 : sbtl
Codec ID                    : tx3g
Duration                    : 1 h 57 min
Bit rate mode               : Variable
Bit rate                    : 137 b/s
Stream size                 : 118 KiB (0%)
Language                    : Russian
Default                     : Yes
Forced                      : No
Alternate group             : 2
Encoded date                : UTC 2016-08-04 18:16:23
Tagged date                 : UTC 2016-08-04 18:16:23

Text #2
ID                          : 5
Format                      : Timed Text
Muxing mode                 : sbtl
Codec ID                    : tx3g
Duration                    : 1 h 57 min
Bit rate mode               : Variable
Bit rate                    : 79 b/s
Stream size                 : 68.2 KiB (0%)
Language                    : English
Default                     : No
Forced                      : No
Alternate group             : 2
Encoded date                : UTC 2016-08-04 18:16:23
Tagged date                 : UTC 2016-08-04 18:16:23

Menu
ID                          : 6
Codec ID                    : text
Duration                    : 2 h 4 min
Encoded date                : UTC 2016-08-04 18:16:54
Tagged date                 : UTC 2016-08-04 18:16:54
Menu For                    : 1
00:00:00.000                : The Customer Is Always Right
00:02:59.721                : Sin City
00:04:52.042                : Hartigan
00:13:02.782                : "Her Name Is Goldie"
00:16:39.707                : Lucille
00:18:37.908                : Mary
00:24:35.307                : The Farm
00:30:21.820                : "What If I'm Wrong?"
00:34:24.896                : The Hard Goodbye
00:43:53.631                : "Is That the Best You Can Do, Pansies?"
00:47:19.461                : Shellie
00:51:58.532                : Dwight
00:55:13.185                : Old Town
00:58:51.861                : Deadly Little Miho
01:02:21.779                : Warrior Woman
01:07:32.006                : Designated Driver
01:11:46.594                : The Pits
01:17:13.629                : Jackie Boy's Head
01:20:11.556                : The Big Fat Kill
01:26:31.436                : Senator Roark
01:30:12.281                : Letters From Cordelia
01:33:21.679                : This Guy Smells Awful
01:37:15.454                : That Yellow Bastard
01:42:15.671                : Kiss of Death
01:49:18.301                : Killing of the Snake
01:54:39.122                : Fair Trade
01:56:45.873                : Becky
01:57:47.310                : End Credits
Bit rate mode               : VBR

Скриншоты:




Город грехов 2: Женщина, ради которой стоит убивать / Sin City: A Dame to Kill For (2014) HDRip [H.264]

«There is no justice without sin»
Производство: США, Aldamisa Entertainment, Demarest Films, Miramax Films, Troublemaker Studios
Жанр: Боевик, Триллер, Криминал

Режиссер: Фрэнк Миллер, Роберт Родригес
Актеры: Брюс Уиллис, Микки Рурк, Ева Грин, Джош Бролин, Розарио Доусон, Джессика Альба, Джозеф Гордон-Левитт, Пауэрс Бут, Деннис Хейсбёрт, Джейми Чунг

Описание:
В темных переулках Города Грехов Дуайт планирует жестоко отомстить женщине по имени Ава Лорд, которая его предала, в то время как Нэнси пытается смириться со смертью детектива Хартигана.


Возраст: 16+ (зрителям, достигшим 16 лет)
Рейтинг MPAA: R (лицам до 17 лет обязательно присутствие взрослого)

Продолжительность: 01:42:08
Качество видео: HDRip
Перевод: Дублированный
Язык субтитров: Английский
Вид субтитров: Вшитые

Видео: AVC/H.264 (Main@L3.1), 720x552@1024x552 (1.85:1), 1700 Кбит/сек
Аудио #1: AAC, 2 канала, 128 Кбит/сек - русский
Аудио #2: AAC, 2 канала, 128 Кбит/сек - английский (оригинальный)
Код:
Код: Выделить всё
General
Complete name               : C:\CREATE\264mod1\out\Sin.City.2-A.Dame.to.Kill.For.2014.576p.HDRip.AAC.NNMclub.mp4
Format                      : MPEG-4
Format profile              : Base Media
Codec ID                    : isom (isom/avc1)
File size                   : 1.40 GiB
Duration                    : 1 h 42 min
Overall bit rate mode       : Variable
Overall bit rate            : 1 967 kb/s
Movie name                  : Город грехов 2: Женщина, ради которой стоит убивать
Performer                   : Frank Miller & Robert Rodriguez
Director                    : Frank Miller / Robert Rodriguez / Monika Petrillo
Actor                       : Mickey Rourke (Marv) / Jessica Alba (Nancy) / Josh Brolin (Dwight) / Joseph Gordon-Levitt (Johnny) / Rosario Dawson (Gail) / Bruce Willis (Hartigan) / Eva Green (Ava) / Powers Boothe (Senator Roark) / Dennis Haysbert (Manute) / Ray Liotta (Joey) / Christopher Meloni (Mort) / Jeremy Piven (Bob) / Christopher Lloyd (Kroenig) / Jaime King (Goldie / Wendy) / Juno Temple (Sally) / Stacy Keach (Wallenquist) / Marton Csokas (Damien Lord) / Jude Ciccolella (Lt. Liebowitz) / Jamie Chung (Miho) / Lady Gaga (Bertha) / Alexa PenaVega (Gilda) / Julia Garner (Marcie) / Billy Blair (Louie) / Patricia Vonne (Dallas) / Bart Fletcher (Flint) / Alejandro Rose-Garcia (Buzz) / Samuel Davis (Frat Boy #3) / Mike Davis (Frat Boy #4) / Kimberly Cox (Lillian) / Alcides Dias (Tony) / Vincent Fuentes (Abdul) / Rob Franco (Luigi) / Daylon Walton (Gordo) / Eloise DeJoria (Joey's Wife) / Bob Schreck (Mulgrew) / Lawrence Varnado (Boogaard) / Jimmy Gonzales (Jacoby) / Tommy Townsend (Wino Old Timer) / Robert Lott (Cowboy) / Gregory Kelly (Godzilla) / Patrick Sane (Gorgo) / Greg Ingram (Mothra) / Will Beinbrink (Lawyer) / Dimitrius Pulido (Maitre D) / John Wirt (Heavy) / Emmy Robbin (Flamethower) / Luis Albert Acevedo Jr. (Security Guard #1) / Christian Bowman (The Man) / Johnny Reno (Weevil)
Screenplay by               : Frank Miller
Producer                    : Alexander Rodnyansky / Frank Miller / Robert Rodriguez / Bob Weinstein / Harvey Weinstein / Sergei Bespalov / Aaron Kaufman / Stephen L'Heureux / Mark C. Manuel / Mary Vernieu / Nikki Taylor
Genre                       : Action & Adventure
ContentType                 : Short Film
Description                 : В темных переулках Города Грехов Дуайт планирует жестоко отомстить женщине по имени Ава Лорд, которая его предала, в то время как Нэнси пытается смириться со смертью детектива Хартигана.
Recorded date               : UTC 2014-08-20 08:00:00
Encoded date                : UTC 2016-08-04 18:14:55
Tagged date                 : UTC 2016-08-04 18:47:23
Cover                       : Yes
Rating                      : None
Title/Sort                  : Sin City: A Dame to Kill For
LongDescription             : В темных переулках Города Грехов Дуайт планирует жестоко отомстить женщине по имени Ава Лорд, которая его предала, в то время как Нэнси пытается смириться со смертью детектива Хартигана.
ContentRating               : mpaa|R|400|

Video
ID                          : 1
Format                      : AVC
Format/Info                 : Advanced Video Codec
Format profile              :
Format settings, CABAC      : No
Format settings, ReFrames   : 4 frames
Codec ID                    : avc1
Codec ID/Info               : Advanced Video Coding
Duration                    : 1 h 42 min
Bit rate                    : 1 700 kb/s
Maximum bit rate            : 15.7 Mb/s
Width                       : 720 pixels
Height                      : 552 pixels
Display aspect ratio        : 1.85:1
Frame rate mode             : Constant
Frame rate                  : 23.976 (24000/1001) FPS
Color space                 : YUV
Chroma subsampling          : 4:2:0
Bit depth                   : 8 bits
Scan type                   : Progressive
Bits/(Pixel*Frame)          : 0.178
Stream size                 : 1.21 GiB (86%)
Writing library             : x264 core 148 r2705 3f5ed56
Encoding settings           : cabac=0 / ref=4 / deblock=1:-1:-1 / analyse=0x1:0x131 / me=umh / subme=7 / psy=1 / psy_rd=1.00:0.25 / mixed_ref=1 / me_range=32 / chroma_me=1 / trellis=2 / 8x8dct=0 / cqm=0 / deadzone=21,11 / fast_pskip=0 / chroma_qp_offset=-4 / threads=17 / lookahead_threads=2 / sliced_threads=0 / nr=0 / decimate=0 / interlaced=0 / bluray_compat=0 / constrained_intra=0 / bframes=3 / b_pyramid=2 / b_adapt=2 / b_bias=0 / direct=3 / weightb=1 / open_gop=0 / weightp=2 / keyint=240 / keyint_min=23 / scenecut=40 / intra_refresh=0 / rc_lookahead=40 / rc=2pass / mbtree=1 / bitrate=1700 / ratetol=1.0 / qcomp=0.80 / qpmin=0 / qpmax=69 / qpstep=4 / cplxblur=20.0 / qblur=0.5 / vbv_maxrate=14000 / vbv_bufsize=14000 / nal_hrd=none / filler=0 / ip_ratio=1.10 / aq=1:0.50
Language                    : English
Encoded date                : UTC 2016-08-04 18:14:55
Tagged date                 : UTC 2016-08-04 18:15:11
Color range                 : Limited
Matrix coefficients         : BT.709
Menus                       : 5

Audio #1
ID                          : 2
Format                      : AAC
Format/Info                 : Advanced Audio Codec
Format profile              : LC
Codec ID                    : 40
Duration                    : 1 h 42 min
Bit rate mode               : Variable
Bit rate                    : 128 kb/s
Maximum bit rate            : 133 kb/s
Channel(s)                  : 2 channels
Channel positions           : Front: L R
Sampling rate               : 48.0 kHz
Frame rate                  : 46.875 FPS (1024 spf)
Compression mode            : Lossy
Stream size                 : 93.5 MiB (7%)
Language                    : Russian
Default                     : Yes
Alternate group             : 1
Encoded date                : UTC 2016-08-04 18:15:05
Tagged date                 : UTC 2016-08-04 18:15:11

Audio #2
ID                          : 3
Format                      : AAC
Format/Info                 : Advanced Audio Codec
Format profile              : LC
Codec ID                    : 40
Duration                    : 1 h 42 min
Bit rate mode               : Variable
Bit rate                    : 128 kb/s
Maximum bit rate            : 133 kb/s
Channel(s)                  : 2 channels
Channel positions           : Front: L R
Sampling rate               : 48.0 kHz
Frame rate                  : 46.875 FPS (1024 spf)
Compression mode            : Lossy
Stream size                 : 93.5 MiB (7%)
Language                    : English
Default                     : No
Alternate group             : 1
Encoded date                : UTC 2016-08-04 18:15:08
Tagged date                 : UTC 2016-08-04 18:15:11

Text
ID                          : 4
Format                      : Timed Text
Muxing mode                 : sbtl
Codec ID                    : tx3g
Duration                    : 1 h 35 min
Bit rate mode               : Variable
Bit rate                    : 74 b/s
Stream size                 : 51.7 KiB (0%)
Title                       : Full
Language                    : English
Default                     : Yes
Forced                      : No
Alternate group             : 2
Encoded date                : UTC 2016-08-04 18:15:11
Tagged date                 : UTC 2016-08-04 18:15:11

Menu
ID                          : 5
Codec ID                    : text
Duration                    : 1 h 42 min
Encoded date                : UTC 2016-08-04 18:15:28
Tagged date                 : UTC 2016-08-04 18:15:28
Bit rate mode               : CBR
Menu For                    : 1
00:00:00.000                : 00:00:00.000
00:07:04.966                : 00:07:04.966
00:14:23.571                : 00:14:23.571
00:20:40.114                : 00:20:40.114
00:26:18.911                : 00:26:18.911
00:31:26.885                : 00:31:26.885
00:38:13.666                : 00:38:13.666
00:45:24.639                : 00:45:24.639
00:50:49.630                : 00:50:49.630
00:57:46.588                : 00:57:46.588
01:07:05.980                : 01:07:05.980
01:12:30.805                : 01:12:30.805
01:16:48.437                : 01:16:48.437
01:23:19.828                : 01:23:19.828
01:28:59.084                : 01:28:59.084
01:35:22.967                : 01:35:22.967

Скриншоты:


Время раздачи: 24/7 (круглосуточно) (до появления первых 3-5 скачавших)
 
Не забывайте говорить Спасибо. Не уходите с раздачи!   
Торрент: Зарегистрирован [05 авг 2016, 00:05] Для скачивания .torrent
необходима регистрация
Или скачать с помощью
MediaGet
Статус:
Проверен
 
.torrent скачан: 0 раз
Хэш: 46b65bb90927497c13c4e46cd2b4b0175371fca3
Размер: 3.11 ГБ (3 339 621 976 байт)
Стать Автором раздачи
 
 
Раздал: 100 ГБ
Скачал: 0 байт
Ратио: Seed.
Сообщения: 94048
Зарегистрирован: 09 апр 2015, 22:31


  • Похожие торренты
    Ответы
    Просмотры
    Последнее сообщение

Вернуться в Видео для мобильных устройств

Ресурс не предоставляет электронные версии произведений, а занимается лишь коллекционированием и каталогизацией ссылок, присылаемых и публикуемых на форуме нашими читателями. Если вы являетесь правообладателем какого-либо представленного материала и не желаете чтобы ссылка на него находилась в нашем каталоге, свяжитесь с нами и мы незамедлительно удалим её. Файлы для обмена на трекере предоставлены пользователями сайта, и администрация не несёт ответственности за их содержание. Просьба не заливать файлы, защищенные авторскими правами, а также файлы нелегального содержания!
cron