Трагическая сестра Титаника / Titanic's Tragic Sister (2007) DVB

 
 Статистика раздачи 
Размер: 610.59 МБ   |  Зарегистрирован: 04 авг 2016, 22:07   |   .torrent скачан: 3 раз
Сидеров: 1  [ 0 байт/сек ]     Личеров: 0  [ 0 байт/сек ]  
  

Трагическая сестра Титаника / Titanic's Tragic Sister (2007) DVB

Сообщение explosiveone » 04 авг 2016, 22:07

Трагическая сестра Титаника / Titanic's Tragic Sister (2007) DVB

Телекомпания: США, Lone Wolf Documentary Group
Жанр: Документальный

Участники: Режиссер:Кирк Вольфингер

Описание:
Британник, сестра злополучного Титаника, был спущена на воду всего за шесть месяцев до начала Первой мировой войны и вскоре была принята в эксплуатацию в качестве плавучего госпиталя. 21 ноября 1916 года, в то время как судно проходило через канал в Эгейском море, взрыв разорвал корпус Британника и менее чем через час корабль затонул, унеся жизни 30 человек. Было ли это немецкая мина или торпеда подводной лодки, которые стали причиной взрыва, остается загадкой до сих пор. Почему и как гигантский корабль так быстро затонул? На этот вопрос пытаются ответить водолазы Джон Чаттертон и Ричи Kohler, они проводят волнующую экспедицию, чтобы разгадать тайну последнего часа Britannics.



Продолжительность: 00:44:56
Качество видео: DVB
Перевод: Многоголосый закадровый, профессиональный

Видео: MPEG-2, 544х576, ~1702 kbps
Аудио: MP2, 2 ch, 160 Kbps, CBR
Код:
Код: Выделить всё
Общее
Полное имя                               : Titanic's Tragic Sister.mpeg
Формат                                   : MPEG-PS
Размер файла                             : 611 Мбайт
Продолжительность                        : 44 м.
Режим общего битрейта                    : Переменный
Общий поток                              : 1899 Кбит/сек

Видео
Идентификатор                            : 224 (0xE0)
Формат                                   : MPEG Video
Версия формата                           : Version 2
Профиль формата                          : [email protected]
Параметр BVOP формата                    : Нет
Параметр матрицы формата                 : Выборочная
Параметр GOP формата                     : Variable
Продолжительность                        : 44 м.
Вид битрейта                             : Переменный
Битрейт                                  : 1702 Кбит/сек
Максимальный битрейт                     : 2900 Кбит/сек
Ширина                                   : 544 пикселя
Высота                                   : 576 пикселей
Соотношение сторон                       : 4:3
Частота кадров                           : 25,000 кадров/сек
Цветовое пространство                    : YUV
Субдискретизация насыщенности            : 4:2:0
Битовая глубина                          : 8 бит
Тип развёртки                            : Прогрессивная
Порядок развёртки                        : Верхнее поле первое
Метод сжатия                             : С потерями
Бит/(Пиксели*Кадры)                      : 0.217
Временной код первого кадра              : 00:43:07:00
Оригинал временного кода                 : Group of pictures header
Размер потока                            : 547 Мбайт (90%)

Аудио
Идентификатор                            : 192 (0xC0)
Формат                                   : MPEG Audio
Версия формата                           : Version 1
Профиль формата                          : Layer 2
Продолжительность                        : 44 м.
Вид битрейта                             : Постоянный
Битрейт                                  : 160 Кбит/сек
Каналы                                   : 2 канала
Частота                                  : 48,0 КГц
Метод сжатия                             : С потерями
Задержка видео                           : -40 мс.
Размер потока                            : 51,4 Мбайт (8%)

Скриншоты:



Время раздачи: Пн-Пт с 18:00 до 22:00 (до появления первых 3-5 скачавших)
 
Не забывайте говорить Спасибо. Не уходите с раздачи!   
Торрент: Зарегистрирован [04 авг 2016, 22:07] Для скачивания .torrent
необходима регистрация
Или скачать с помощью
MediaGet
Статус:
Проверен
 
.torrent скачан: 3 раз
Хэш: 357c7b0676e35eb3cecb11f58b9189843d5f0b89
Размер: 610.59 МБ (640 247 808 байт)
Стать Автором раздачи
 
 
Раздал: 100 ГБ
Скачал: 0 байт
Ратио: Seed.
Сообщения: 82289
Зарегистрирован: 09 апр 2015, 22:31


  • Похожие торренты
    Ответы
    Просмотры
    Последнее сообщение

Вернуться в Флот

Кто сейчас на конференции

Сейчас эту тему просматривают: нет зарегистрированных пользователей и гости: 1

Ресурс не предоставляет электронные версии произведений, а занимается лишь коллекционированием и каталогизацией ссылок, присылаемых и публикуемых на форуме нашими читателями. Если вы являетесь правообладателем какого-либо представленного материала и не желаете чтобы ссылка на него находилась в нашем каталоге, свяжитесь с нами и мы незамедлительно удалим её. Файлы для обмена на трекере предоставлены пользователями сайта, и администрация не несёт ответственности за их содержание. Просьба не заливать файлы, защищенные авторскими правами, а также файлы нелегального содержания!