The Sweet – Action (The Ultimate Story) (2015) DVDReMux

 
 Статистика раздачи 
Размер: 5.9 ГБ   |  Зарегистрирован: 29 июл 2016, 15:04   |   .torrent скачан: 1 раз
Сидеров: 1  [ 0 байт/сек ]     Личеров: 0  [ 0 байт/сек ]  
  

The Sweet – Action (The Ultimate Story) (2015) DVDReMux

Сообщение i926 » 29 июл 2016, 15:04

The Sweet – Action (The Ultimate Story) the 40th anniversary (2015)
DVDRemux

Жанр: Hard rock, Glam rock
Релиз: 18 сентября 2015 года

Описание:

Ну что сказать про Свит? Для моего поколения они тоже одни из символов времени. Некоторые их треки (Co-Co, например) даже появлялись на пластинках Мелодии. Но, конечно, наиболее сильное впечатление на меня произвел их альбом Fanny Adams, который я услышал году этак в 75-ом. AC-DC - сила!

Одним словом, перед вами одна из моих ностальгических раздач, которая состоит из двух матрешек. Первая - клипы, и вторая - нарезка из телевизионных выступлений группы в разные годы и на разных каналах. Качество картинки тоже везде разное, но что есть, то есть.
Вообще говоря, в исходном бокс-сете есть и еще материал (концертники, в частности), но я решил остановиться на том, на чем остановился.
Продолжительность: 00:58:44 (Music Videos) + 00:58:57 (On TV)
Качество видео: DVDRemux
Видео: MPEG2 NTSC 4x3 VBR | average ~7Mbps, max ~9Mbps, 720*480i, 29.97fps
Аудио: Dolby Digital 2.0, 48KHz, 224kbps
=Music Videos=

01 Alexander Graham Bell
02 Jeanie
03 Poppa Joe
04 The Ballroom Blitz
05 Teenage Rampage
06 The Six Teens
07 Turn It Down
08 Fox On The Run
09 Action
10 The Lies In Your Eyes
11 Lost Angels
12 Fever Of Love
13 Love Is Like Oxygene
14 Sixties Man
15 Give The Lady Some Respect
16 Lady Starlight (Andy Scott Solo)
17 Krugerrands (Andy Scott Solo)

=On TV=

01 Co-Co (Die Aktuelle Schaubude / NDR / 06.11.1971)
02 Poppa Joe (Top Of The Pops / BBC / 11.03.1972)
03 Little Willy (Top Of The Pops / BBC / 22.07.1972)
04 Wig-Wam Bam (Top Of The Pops / BBC / 11.11.1972)
05 Bockbuster (Top Of The Pops / BBC / 25.01.1973)
06 Hell Raiser (Disco / ZDF / 23.06.1973)
07 The Ballroom Blitz (Silvester Tanzparty -1974/75 / ZDF / 31.12.1974)
08 Teenage Rampage (Musikladen / Radio Bremen / 20.02.1974)
09 You´re Not Wrong Loving Me (45 / ITV / 28.11.1974)
10 Lady Starlight (Supersonic / ITV / 13.12.1975)
11 Breakdown (The Geordie Scene /ITV / 30.11.1974)
12 Fox On The Run (Top Of The Pops / BBC / 23.12.1975)
13 Action (Supersonic / ITV / 16.10.1975)
14 Burn On The Flame (Supersonic / ITV / 16.10.1975)
15 The Lies In Your Eyes (Supersonic / ITV / 12.01.1976)
16 Lost Angels (Musikladen / Radio Bremen / 11.12.1976)
17 Live For Today (Disco / ZDF / 20.08.1977)
18 Love Is Like Oxygen (Disco / ZDF / 20.03.1978)
19 Call Me ( Musikladen / Radio Bremen / 22.03.1979)
Общее

Полное имя : ... The Sweet - Action (Music Videos) [MPEG2 4x3 AC3] 2015.mkv
Формат : Matroska
Версия формата : Version 4 / Version 2
Размер файла : 3,08 Гбайт
Продолжительность : 58 м.
Режим общего битрейта : Переменный
Общий поток : 7512 Кбит/сек
Дата кодирования : UTC 2016-07-26 13:05:48
Программа кодирования : mkvmerge v7.8.0 ('River Man') 32bit built on Mar 27 2015 16:18:02
Библиотека кодирования : libebml v1.3.1 + libmatroska v1.4.2

Видео

Идентификатор : 1
Формат : MPEG Video
Версия формата : Version 2
Профиль формата : Main@Main
Параметр BVOP формата : Да
Параметр матрицы формата : Выборочная
Параметр GOP формата : M=3, N=15
Структура изображения : Frame
Идентификатор кодека : V_MPEG2
Идентификатор кодека/Информация : MPEG 1 or 2 Video
Продолжительность : 58 м.
Вид битрейта : Переменный
Битрейт : 7282 Кбит/сек
Максимальный битрейт : 8400 Кбит/сек
Ширина : 720 пикселей
Высота : 480 пикселей
Соотношение сторон : 4:3
Режим частоты кадров : Переменный
Частота кадров : 29,970 кадров/сек
Стандарт вещания : NTSC
Цветовое пространство : YUV
Субдискретизация насыщенности : 4:2:0
Битовая глубина : 8 бит
Тип развёртки : Чересстрочная
Порядок развёртки : Верхнее поле первое
Метод сжатия : С потерями
Бит/(Пиксели*Кадры) : 0.703
Временной код первого кадра : 00:00:00:00
Оригинал временного кода : Group of pictures header
GOP, открыто/закрыто : Закрыто
Размер потока : 2,99 Гбайт (97%)
Заголовок : VBR | 7282kbps(max8400kbps), 720*480i (4x3), 29.97fps, MPEG2 (NTSC) (Main@Main)
Библиотека кодирования : (dvd5: Oct 27 2015)
Default : Да
Forced : Нет

Аудио

Идентификатор : 2
Формат : AC-3
Формат/Информация : Audio Coding 3
Расширение режима : CM (complete main)
Параметр Endianness формата : Big
Идентификатор кодека : A_AC3
Продолжительность : 58 м.
Вид битрейта : Постоянный
Битрейт : 224 Кбит/сек
Каналы : 2 канала
Расположение каналов : Front: L R
Частота : 48,0 КГц
Частота кадров : 31,250 кадров/сек (1536 spf)
Метод сжатия : С потерями
Размер потока : 94,1 Мбайт (3%)
Заголовок : Dolby Digital 2.0, 48kHz, 224kbps
Язык : English
Default : Да
Forced : Нет

Меню

00:00:00.000 : en:Alexander Graham Bell
00:02:46.166 : en:Jeanie
00:05:41.842 : en:Poppa Joe
00:08:39.019 : en:The Ballroom Blitz
00:12:39.259 : en:Teenage Rampage
00:16:09.469 : en:The Six Teens
00:20:04.704 : en:Turn It Down
00:23:31.410 : en:Fox On The Run
00:26:51.610 : en:Action
00:30:08.807 : en:The Lies In Your Eyes
00:33:52.531 : en:Lost Angels
00:37:51.770 : en:Fever Of Love
00:41:52.510 : en:Love Is Like Oxygene
00:45:34.232 : en:Sixties Man
00:48:30.908 : en:Give The Lady Some Respect
00:51:55.613 : en:Lady Starlight (Andy Scott Solo)
00:55:04.301 : en:Krugerrands (Andy Scott Solo)
Общее

Полное имя : ...The Sweet - Action (On TV) [MPEG2 4x3 AC3] 2015.mkv
Формат : Matroska
Версия формата : Version 4 / Version 2
Размер файла : 2,82 Гбайт
Продолжительность : 58 м.
Режим общего битрейта : Переменный
Общий поток : 6839 Кбит/сек
Дата кодирования : UTC 2016-07-27 11:08:54
Программа кодирования : mkvmerge v7.8.0 ('River Man') 32bit built on Mar 27 2015 16:18:02
Библиотека кодирования : libebml v1.3.1 + libmatroska v1.4.2

Видео

Идентификатор : 1
Формат : MPEG Video
Версия формата : Version 2
Профиль формата : Main@Main
Параметр BVOP формата : Да
Параметр матрицы формата : Выборочная
Параметр GOP формата : M=3, N=15
Структура изображения : Frame
Идентификатор кодека : V_MPEG2
Идентификатор кодека/Информация : MPEG 1 or 2 Video
Продолжительность : 58 м.
Вид битрейта : Переменный
Битрейт : 6609 Кбит/сек
Максимальный битрейт : 9200 Кбит/сек
Ширина : 720 пикселей
Высота : 480 пикселей
Соотношение сторон : 4:3
Режим частоты кадров : Переменный
Частота кадров : 29,970 кадров/сек
Стандарт вещания : NTSC
Цветовое пространство : YUV
Субдискретизация насыщенности : 4:2:0
Битовая глубина : 8 бит
Тип развёртки : Чересстрочная
Порядок развёртки : Верхнее поле первое
Метод сжатия : С потерями
Бит/(Пиксели*Кадры) : 0.638
Временной код первого кадра : 00:00:00:00
Оригинал временного кода : Group of pictures header
GOP, открыто/закрыто : Закрыто
Размер потока : 2,72 Гбайт (97%)
Заголовок : VBR | 7268kbps(max8400kbps), 720*480i (4x3), 29.97fps, MPEG2 (NTSC) (Main@Main)
Библиотека кодирования : (dvd5: Oct 27 2015)
Default : Да
Forced : Нет

Аудио

Идентификатор : 2
Формат : AC-3
Формат/Информация : Audio Coding 3
Расширение режима : CM (complete main)
Параметр Endianness формата : Big
Идентификатор кодека : A_AC3
Продолжительность : 58 м.
Вид битрейта : Постоянный
Битрейт : 224 Кбит/сек
Каналы : 2 канала
Расположение каналов : Front: L R
Частота : 48,0 КГц
Частота кадров : 31,250 кадров/сек (1536 spf)
Метод сжатия : С потерями
Размер потока : 94,4 Мбайт (3%)
Заголовок : Dolby Digital 2.0, 48kHz, 224kbps
Язык : English
Default : Да
Forced : Нет

Меню

00:00:00.000 : en:Co-Co (Die Aktuelle Schaubude / NDR / 06.11.1971)
00:03:09.690 : en:Poppa Joe (Top Of The Pops / BBC / 11.03.1972)
00:05:57.357 : en:Little Willy (Top Of The Pops / BBC / 22.07.1972)
00:08:46.526 : en:Wig-Wam Bam (Top Of The Pops / BBC / 11.11.1972
00:11:34.694 : en:Blockbuster (Top Of The Pops / BBC / 25.01.1973)
00:14:36.376 : en:Hell Raiser (Disco / ZDF / 23.06.1973)
00:17:51.070 : en:The Ballroom Blitz (Silvester Tanzparty 1974/75 / ZDF / 31.12.1974)
00:21:46.806 : en:Teenage Rampage (Musikladen / Radio Bremen / 20.02.1974)
00:25:12.011 : en:You're Not Wrong Loving Me (45 / ITV / 28.11.1974)
00:27:19.638 : en:Lady Starlight (Supersonic / ITV / 13.12.1975)
00:30:16.315 : en:Breakdown (The Geordie Scene /ITV / 30.11.1974)
00:33:24.503 : en:Fox On The Run (Top Of The Pops / BBC / 23.12.1975)
00:36:27.185 : en:Action (Supersonic / ITV / 16.10.1975)
00:39:36.875 : en:Burn On The Flame (Supersonic / ITV / 16.10.1975)
00:42:50.068 : en:The Lies In Your Eyes (Supersonic / ITV / 12.01.1976)
00:46:13.271 : en:Lost Angels (Musikladen / Radio Bremen / 11.12.1976)
00:49:40.478 : en:Live For Today (Disco / ZDF / 20.08.1977)
00:52:58.676 : en:Love Is Like Oxygen (Disco / ZDF / 20.03.1978)
00:56:40.898 : en:Call Me (Musikladen / Radio Bremen / 22.03.1979)
В 2015 году легендарная группа Sweet, от которой, правда, в живых осталась только половина участников, празднует 40-летнюю годовщину одного из своих главных хитов - песни “Action” и выпускает новый сборник лучших хитов, рассказывающий всю историю группы от самого начала и до сегодняшних дней, который можно кратко охарактеризовать как: ACTION - 40 лет хитов! SWEET с Brian Connolly, Mick Tucker, Steve Priest и Andy Scott завоевали всемирную славу практически нескончаемой чередой хитов, восемь из которых добирались до вершины хит-парадов. Такие песни как „The Ballroom Blitz“, „Teenage Rampage“, „Wig Wam Bam“ и „Hell Raiser“, "Action" и многие другие сделали SWEET негасимыми звездами мировой рок-сцены.

Компания Sony Music выпустила на тройном DVD-Video антологию группы под названием " Action! The Ultimate Sweet Story ".

Sweet - Action (The Ultimate Story) (2015) 2CD Deluxe Edition [OGG| 446-548 кб/с]<Classic Rock, Glam Rock, Hard Rock>
Скриншоты:



Время раздачи: 10-19 рабочие дни (в основном)
 
Не забывайте говорить Спасибо. Не уходите с раздачи!   
Торрент: Зарегистрирован [29 июл 2016, 15:04] Скачать торрент
Скачать торрент
[ Размер 15.6 КБ / Просмотров 21 ]
Статус:
Проверен
 
.torrent скачан: 1 раз
Хэш: b373167992ab8c8796bd867d44c83d870ff52b8e
Размер: 5.9 ГБ (6 332 677 299 байт)
Стать Автором раздачи
 
Аватара пользователя
Главный редактор
Главный редактор
 
Раздал: 15.43 ТБ
Скачал: 13.78 ТБ
Ратио: 1.120
Сообщения: 65446
Зарегистрирован: 01 мар 2011, 23:07


  • Похожие торренты
    Ответы
    Просмотры
    Последнее сообщение

Вернуться в Музыкальные клипы (транзит)

Ресурс не предоставляет электронные версии произведений, а занимается лишь коллекционированием и каталогизацией ссылок, присылаемых и публикуемых на форуме нашими читателями. Если вы являетесь правообладателем какого-либо представленного материала и не желаете чтобы ссылка на него находилась в нашем каталоге, свяжитесь с нами и мы незамедлительно удалим её. Файлы для обмена на трекере предоставлены пользователями сайта, и администрация не несёт ответственности за их содержание. Просьба не заливать файлы, защищенные авторскими правами, а также файлы нелегального содержания!
cron