Сборник клипов - Philizz "I covered the 80s" (season 1, episode 1-5) (2016) WEB-DLRip [720p]

 
 Статистика раздачи 
Размер: 2.19 ГБ   |  Зарегистрирован: 28 июл 2016, 20:58   |   .torrent скачан: 0 раз
Сидеров: 1  [ 0 байт/сек ]     Личеров: 0  [ 0 байт/сек ]  
  

Сборник клипов - Philizz "I covered the 80s" (season 1, episode 1-5) (2016) WEB-DLRip [720p]

Сообщение explosiveone » 28 июл 2016, 20:58

Сборник клипов - Philizz "I covered the 80s" (season 1, episode 1-5) (2016) WEB-DLRip [720p]

Исполнитель: Philizz
Название: I covered the 80s
Год выхода: 2016
Жанр: Pop, Club, Dance, Video-Megamix
Продолжительность: от 00:26:12 до 00:31:29

Описание:
Сборник клипов "I covered the 80s" - фирменный видеомикс от голландского ви-джея Philizz, составленный из небольших фрагментов клипов.
Ваши любимые композиции 80-х годов - в современной обработке.
- Разбивка по трекам отсутствует.

Видеокодек: MPEG4 (AVC)
Качество видео: WEB-DLRip
Размер кадра: 1920х720
Битрейт видео: 1980 Kbps
Аудиокодек: AАC 2.0
Битрейт аудио: 152-192 Kbps (VBR)

Треклист Episode 1:
Modern Talking - You're My Heart, You're My Soul '98
Rickrollerz - Never Gonna Give You Up
Alyssa Reid ft. Jump Smokers - Alone Again
Jay C vs. The Rock Steady Crew - Hey You
Liquid People vs. Talk Talk - It's My Life
Phil Collins - Another Day In Paradise
Yvan & Dan Daniel - Enjoy The Silence
Sunset Strippers - Falling Stars
Cabin Crew - Waiting For A Star To Fall
Andrew Spencer - Stop Loving You
Eric Prydz ft. Pink Floyd - Proper Education
Alcazar - Don't You Want Me
Frankie Goes To Hollywood - Relax
Bingo Players - Cry (Just A Little)
Daniel Hoppe ft. Paul King - Love & Pride 2005
Lil Chris - We Don't Have To Take Our Clothes Off
Space Cowboy - I Would Die 4 You
David May ft. Kelvin Scott - I'll Be Watching You
Jonas Blue ft. Dakota - Fast Car
The Soundbluntz - Billie Jean
Kate Ryan - Voyage Voyage
Crystal Rock ft. Hornyshakerz - How Will I Know
Hi Tack - Let's Dance
Mel & Kim - Respectable (Supreme Mix 2010)
Crystal Rock - Because I Love You
Starting Rock ft. Diva Avari - Don't Go
Dave Armstrong - Out Of Touch
Wisdome - Off The Wall
Global Deejays - Flashdance (What A Feeling)
Andrew Spencer - Give It Up
Royal Gigolos - Tell It To My Heart
John Marks Project ft. Rene Froger - Sledgehammer
Crew 7 - Money For Nothing
Vinylshakerz - One Night In Bangkok
Safri Duo ft. Michael McDonald - Sweet Freedom
Don Diablo vs. Divided - Easy Lover
Paris Encore - Hungry Eyes
Rhythme Fatal - Man In The Mirror
Stars On 45 - 45
Sunblock ft. Robin Beck - First Time
Jason Derulo - Fight For You
Hampenberg - Love In Siberia
Corny - The Way It Is
Naughty Boy - Phat Beach
Sunblock - I'll Be Ready
Uniting Nations - Out Of Touch
Mad'House - Holiday
Francesco Gomez - Conga
Mylo vs. Gloria Estefan - Dr. Pressure
Ivory - Ghostbusters
Supermode - Tell Me Why
Hi Tack - Say Say Say
Max Graham vs. Yes - Owner Of A Lonely Heart
Sunset Strippers - Step Right Up
Dannii Minogue vs. Dead Or Alive - I Begin To Spin Me Round
The Tamperer ft. Maya - Feel It
Gigi D'Agostino - The Riddle
Beatfreakz - Somebody's Watching Me
Daniel Hoppe - Star
Blue Ice - Keep Me Hanging On
Crew 7 - Such A Shame
Journey - Don't Stop Believin
Musikk ft. Jon Rock - Love Changes Everything
Cassey Doreen - Girs Just Want To Have Fun
Mad'House - Like A Virgin
Loleatta Holloway - Love Sensation 2006
Girls Aloud - Jump
Crew 7 - Eye Of The Tiger
Aycan - Lambada
Beatfreakz - Superfreak
Diva DJ's vs. Nicki French - Total Eclipse Of The Heart 2006
Playhouse - I Think We're Alone Now
Dario G - Heaven Is Closer
Heart - Alone (V1r00z Edit)
Erasure - Oh L'Amour
56K ft. Bejay - Save a Prayer
T'Pau - China In Your Hand 2004
The Lost Brothers - Cry Little Sister
Queen vs Vanguard - Flash
M2b - One Second A Star
Rollergirl - Eternal Flame
Topmodelz - Summer of '69
Scooter - Weekend
CTGP - Jump
S-Boy - Reality
Milk Inc - Maniac
A1 - Take On Me
Код:
Код: Выделить всё
Общее
Полное имя : Philizz - I Covered The 80s [Season 1, Episode 1] (2016).mp4
Формат : MPEG-4
Профиль формата : Base Media
Идентификатор кодека : isom (isom/iso2/avc1/mp41)
Размер файла : 473 Мбайт
Продолжительность : 30 м.
Режим общего битрейта : Переменный
Общий поток : 2137 Кбит/сек
Программа кодирования : Lavf56.25.101

Видео
Идентификатор : 1
Формат : AVC
Формат/Информация : Advanced Video Codec
Профиль формата :
Параметр CABAC формата : Да
Параметр ReFrames формата : 4 кадра
Идентификатор кодека : avc1
Идентификатор кодека/Информация : Advanced Video Coding
Продолжительность : 30 м.
Битрейт : 1980 Кбит/сек
Ширина : 1280 пикселей
Высота : 720 пикселей
Соотношение сторон : 16:9
Режим частоты кадров : Постоянный
Частота кадров : 25,000 кадров/сек
Цветовое пространство : YUV
Субдискретизация насыщенности : 4:2:0
Битовая глубина : 8 бит
Тип развёртки : Прогрессивная
Бит/(Пиксели*Кадры) : 0.086
Размер потока : 438 Мбайт (93%)
Библиотека кодирования : x264 core 142

Аудио
Идентификатор : 2
Формат : AAC
Формат/Информация : Advanced Audio Codec
Профиль формата : LC
Идентификатор кодека : 40
Продолжительность : 30 м.
Вид битрейта : Переменный
Битрейт : 152 Кбит/сек
Максимальный битрейт : 192 Кбит/сек
Каналы : 2 канала
Расположение каналов : Front: L R
Частота : 44,1 КГц
Частота кадров : 43,066 кадра/сек (1024 spf)
Метод сжатия : С потерями
Размер потока : 33,6 Мбайт (7%)
Default : Да
Alternate group : 1
Скриншоты:


Время раздачи: 24/7
Приятного просмотра Philizz "I covered the 80s"!

 
Не забывайте говорить Спасибо. Не уходите с раздачи!   
Торрент: Зарегистрирован [28 июл 2016, 20:58] Скачать торрент
Скачать торрент
[ Размер 12.15 КБ / Просмотров 35 ]
Статус:
Проверен
 
.torrent скачан: 0 раз
Хэш: 81ad374e008576e08c2bfe220e1458938578eacc
Размер: 2.19 ГБ (2 348 201 390 байт)
Стать Автором раздачи
 
 
Раздал: 100 ГБ
Скачал: 0 байт
Ратио: Seed.
Сообщения: 111979
Зарегистрирован: 09 апр 2015, 22:31


  • Похожие торренты
    Ответы
    Просмотры
    Последнее сообщение

Вернуться в Музыкальные клипы (транзит)

Ресурс не предоставляет электронные версии произведений, а занимается лишь коллекционированием и каталогизацией ссылок, присылаемых и публикуемых на форуме нашими читателями. Если вы являетесь правообладателем какого-либо представленного материала и не желаете чтобы ссылка на него находилась в нашем каталоге, свяжитесь с нами и мы незамедлительно удалим её. Файлы для обмена на трекере предоставлены пользователями сайта, и администрация не несёт ответственности за их содержание. Просьба не заливать файлы, защищенные авторскими правами, а также файлы нелегального содержания!
cron