Обреченные. Наша Гражданская война. Корнилов - Троцкий; Марков - Раскольников; Каппель - Чапаев; Слащёв - Фрунзе (Алексей Подгорный и Сергей Жуков) [2016, Документальный, HDTV 1080i]

 
 Статистика раздачи 
Размер: 23.75 ГБ   |  Зарегистрирован: 26 июл 2016, 20:20   |   .torrent скачан: 1 раз
Сидеров: 12  [ 0 байт/сек ]     Личеров: 4  [ 0 байт/сек ]  
  

Обреченные. Наша Гражданская война. Корнилов - Троцкий; Марков - Раскольников; Каппель - Чапаев; Слащёв - Фрунзе (Алексей Подгорный и Сергей Жуков) [2016, Документальный, HDTV 1080i]

Сообщение i926 » 26 июл 2016, 20:20

Обреченные. Наша Гражданская война. Корнилов - Троцкий; Марков - Раскольников; Каппель - Чапаев; Слащёв - Фрунзе

Год выпуска: 2016
Страна: Россия
Жанр: Документальный
Перевод: Не требуется
Русские субтитры: нет

Режиссер: Алексей Подгорный и Сергей Жуков

Описание: В Гражданской войне не бывает героев. Но она выдвигает лидеров, нащупывает и выносит на поверхность людей лично храбрых, с организационными талантами, с харизмой. Жесточайшими противниками становятся люди, еще вчера ничего не знавшие друг о друге. Корнилов и Троцкий - ключевые персонажи в нашей трагической пред- и послеоктябрьской истории. Два варианта узурпации власти и два варианта диктатуры. Один, связанный с именем Корнилова, - несостоявшейся. Второй, связанный с Троцким, - осуществившийся. Два взгляда на развитие России. Корнилов и Троцкий в документально-публицистическом сериале "Обреченные. Наша Гражданская война" с участием народного артиста РФ Валерия Гаркалина в неожиданной роли.

Тип релиза: HDTV 1080i
Контейнер: TS
Продолжительность: 01:27:41
Видео: MPEG4 Video (H264) 1920x1080, 25fps, 5 791 Kbps
Аудио: 224 Kbps : 2сн : 48,0 КГц
Код: Выделить всё
General
ID                                       : 1 (0x1)
Complete name                            : D:\Обреченные. Наша Гражданская война. Корнилов - Троцкий_Sat.ts
Format                                   : MPEG-TS
File size                                : 3.88 GiB
Duration                                 : 1h 27mn
Overall bit rate mode                    : Variable
Overall bit rate                         : 6 330 Kbps

Video
ID                                       : 1901 (0x76D)
Menu ID                                  : 1 (0x1)
Format                                   : AVC
Format/Info                              : Advanced Video Codec
Format profile                           : [email protected]
Format settings, CABAC                   : Yes
Format settings, ReFrames                : 3 frames
Codec ID                                 : 27
Duration                                 : 1h 27mn
Bit rate                                 : 5 791 Kbps
Width                                    : 1 920 pixels
Height                                   : 1 080 pixels
Display aspect ratio                     : 16:9
Frame rate                               : 25.000 fps
Standard                                 : Component
Color space                              : YUV
Chroma subsampling                       : 4:2:0
Bit depth                                : 8 bits
Scan type                                : Interlaced
Scan order                               : Top Field First
Bits/(Pixel*Frame)                       : 0.112
Stream size                              : 3.55 GiB (91%)
Color primaries                          : BT.709
Transfer characteristics                 : BT.709
Matrix coefficients                      : BT.709

Audio
ID                                       : 2901 (0xB55)
Menu ID                                  : 1 (0x1)
Format                                   : MPEG Audio
Format version                           : Version 1
Format profile                           : Layer 2
Codec ID                                 : 3
Duration                                 : 1h 27mn
Bit rate mode                            : Constant
Bit rate                                 : 224 Kbps
Channel(s)                               : 2 channels
Sampling rate                            : 48.0 KHz
Compression mode                         : Lossy
Delay relative to video                  : -40ms
Stream size                              : 140 MiB (4%)
Language                                 : Russian
Продолжительность: 01:25:49
Видео: MPEG4 Video (H264) 1920x1080, 25fps, 10.3 Mbps
Аудио: 192 Kbps : 2сн : 48,0 КГц
Код: Выделить всё
General
ID                                       : 1 (0x1)
Complete name                            : D:\Обреченные - Наша Гражданская война\Обреченные. Наша Гражданская война. Марков - Раскольников_bySat.ts
Format                                   : MPEG-TS
File size                                : 6.62 GiB
Duration                                 : 1h 25mn
Overall bit rate mode                    : Variable
Overall bit rate                         : 11.0 Mbps

Video
ID                                       : 206 (0xCE)
Menu ID                                  : 1 (0x1)
Format                                   : AVC
Format/Info                              : Advanced Video Codec
Format profile                           : [email protected]
Format settings, CABAC                   : Yes
Format settings, ReFrames                : 4 frames
Format settings, GOP                     : M=4, N=28
Codec ID                                 : 27
Duration                                 : 1h 25mn
Bit rate                                 : 10.3 Mbps
Width                                    : 1 920 pixels
Height                                   : 1 080 pixels
Display aspect ratio                     : 16:9
Frame rate                               : 25.000 fps
Color space                              : YUV
Chroma subsampling                       : 4:2:0
Bit depth                                : 8 bits
Scan type                                : Interlaced
Scan order                               : Top Field First
Bits/(Pixel*Frame)                       : 0.199
Stream size                              : 6.18 GiB (93%)
Color primaries                          : BT.709
Transfer characteristics                 : BT.709
Matrix coefficients                      : BT.709

Audio
ID                                       : 306 (0x132)
Menu ID                                  : 1 (0x1)
Format                                   : MPEG Audio
Format version                           : Version 1
Format profile                           : Layer 2
Codec ID                                 : 3
Duration                                 : 1h 25mn
Bit rate mode                            : Constant
Bit rate                                 : 192 Kbps
Channel(s)                               : 2 channels
Sampling rate                            : 48.0 KHz
Compression mode                         : Lossy
Delay relative to video                  : -40ms
Stream size                              : 118 MiB (2%)
Language                                 : Russian
Продолжительность: 01:27:00
Видео: MPEG4 Video (H264) 1920x1080, 25fps, 10.1 Mbps
Аудио: 192 Kbps : 2сн : 48,0 КГц
General
ID : 1 (0x1)
Complete name : D:\Обреченные - Наша Гражданская война\Обреченные. Наша Гражданская война. Каппель - Чапаев_bySat.ts
Format : MPEG-TS
File size : 6.13 GiB
Duration : 1h 27mn
Overall bit rate mode : Variable
Overall bit rate : 10.1 Mbps

Video
ID : 206 (0xCE)
Menu ID : 1 (0x1)
Format : AVC
Format/Info : Advanced Video Codec
Format profile : [email protected]
Format settings, CABAC : Yes
Format settings, ReFrames : 4 frames
Codec ID : 27
Duration : 1h 27mn
Bit rate : 9 393 Kbps
Width : 1 920 pixels
Height : 1 080 pixels
Display aspect ratio : 16:9
Frame rate : 25.000 fps
Color space : YUV
Chroma subsampling : 4:2:0
Bit depth : 8 bits
Scan type : Interlaced
Scan order : Bottom Field First
Bits/(Pixel*Frame) : 0.181
Stream size : 5.71 GiB (93%)
Color primaries : BT.709
Transfer characteristics : BT.709
Matrix coefficients : BT.709

Audio
ID : 306 (0x132)
Menu ID : 1 (0x1)
Format : MPEG Audio
Format version : Version 1
Format profile : Layer 2
Codec ID : 3
Duration : 1h 27mn
Bit rate mode : Constant
Bit rate : 192 Kbps
Channel(s) : 2 channels
Sampling rate : 48.0 KHz
Compression mode : Lossy
Delay relative to video : -40ms
Stream size : 119 MiB (2%)
Language : Russian
Продолжительность: 01:26:22
Видео: MPEG4 Video (H264) 1920x1080, 25fps, 11.0 Mbps
Аудио: 192 Kbps : 2сн : 48,0 КГц
General
ID : 1 (0x1)
Complete name : D:\Обреченные - Наша Гражданская война\Обреченные. Наша Гражданская война. Слащёв - Фрунзе_bySat.ts
Format : MPEG-TS
File size : 7.12 GiB
Duration : 1h 26mn
Overall bit rate mode : Variable
Overall bit rate : 11.8 Mbps

Video
ID : 206 (0xCE)
Menu ID : 1 (0x1)
Format : AVC
Format/Info : Advanced Video Codec
Format profile : [email protected]
Format settings, CABAC : Yes
Format settings, ReFrames : 4 frames
Codec ID : 27
Duration : 1h 26mn
Bit rate : 11.0 Mbps
Width : 1 920 pixels
Height : 1 080 pixels
Display aspect ratio : 16:9
Frame rate : 25.000 fps
Color space : YUV
Chroma subsampling : 4:2:0
Bit depth : 8 bits
Scan type : Interlaced
Scan order : Bottom Field First
Bits/(Pixel*Frame) : 0.213
Stream size : 6.66 GiB (93%)
Color primaries : BT.709
Transfer characteristics : BT.709
Matrix coefficients : BT.709

Audio
ID : 306 (0x132)
Menu ID : 1 (0x1)
Format : MPEG Audio
Format version : Version 1
Format profile : Layer 2
Codec ID : 3
Duration : 1h 26mn
Bit rate mode : Constant
Bit rate : 192 Kbps
Channel(s) : 2 channels
Sampling rate : 48.0 KHz
Compression mode : Lossy
Delay relative to video : -40ms
Stream size : 119 MiB (2%)
Language : Russian
за исходный материал "1. Корнилов - Троцкий" спасибо
заказ
 
Не забывайте говорить Спасибо. Не уходите с раздачи!   
Торрент: Зарегистрирован [26 июл 2016, 20:20] Для скачивания .torrent
необходима регистрация
Или скачать с помощью
MediaGet
Статус:
Проверен
 
.torrent скачан: 1 раз
Хэш: ec3d91d2abd05d8314f4b26b467be26fcd2ab26d
Размер: 23.75 ГБ (25 504 449 420 байт)
Стать Автором раздачи
 
Аватара пользователя
Главный редактор
Главный редактор
 
Раздал: 7.24 ТБ
Скачал: 9.38 ТБ
Ратио: 0.772
Сообщения: 64319
Зарегистрирован: 01 мар 2011, 23:07


  • Похожие торренты
    Ответы
    Просмотры
    Последнее сообщение

Вернуться в История (HD Video)

Кто сейчас на конференции

Сейчас эту тему просматривают: нет зарегистрированных пользователей и гости: 1

Ресурс не предоставляет электронные версии произведений, а занимается лишь коллекционированием и каталогизацией ссылок, присылаемых и публикуемых на форуме нашими читателями. Если вы являетесь правообладателем какого-либо представленного материала и не желаете чтобы ссылка на него находилась в нашем каталоге, свяжитесь с нами и мы незамедлительно удалим её. Файлы для обмена на трекере предоставлены пользователями сайта, и администрация не несёт ответственности за их содержание. Просьба не заливать файлы, защищенные авторскими правами, а также файлы нелегального содержания!