Изгой / Outcast (2016) WEB-DL [H.264] (сезон 1, серии 1-7 из 10) LostFilm [MP4|1280x720] (обновляемая)

 
 Статистика раздачи 
Размер: 10.44 ГБ   |  Зарегистрирован: 24 июл 2016, 23:26   |   .torrent скачан: 0 раз
Сидеров: 1  [ 0 байт/сек ]     Личеров: 0  [ 0 байт/сек ]  
  

Изгой / Outcast (2016) WEB-DL [H.264] (сезон 1, серии 1-7 из 10) LostFilm [MP4|1280x720] (обновляемая)

Сообщение explosiveone » 24 июл 2016, 23:26

Изгой / Outcast (2016) WEB-DL [H.264] (сезон 1, серии 1-7 из 10) LostFilm

«Possession is just the beginning»
Производство: США
Жанр: ужасы, драма

Режиссер: Ли Джаньяк, Лони Перистер, Джулиус Рамсей
Актеры: Ренн Шмидт Патрик Фьюджит Филип Гленистер Дэвид Денман Рег Э. Кэти Калли Брук МакКлинси Пит Буррис Брент Спайнер Мелинда МакГроу Мадлен МакГроу и др.

Описание:
Сериал рассказывает о молодом человеке, который пытается понять, почему всю его жизнь с ним происходят различные сверхъестественные вещи.


Дата мировой премьеры: 3 июня 2016

Возраст: 18+ (зрителям, достигшим 18 лет. запрещено для детей)

Продолжительность: ~00:55:00 серия
Качество видео: WEB-DL
Перевод: Многоголосый закадровый, профессиональный - LostFilm
Реклама: присутствуют заставка и логотип LostFilm.

Видео: AVC/H.264, 1280х720, ~4000 Kbps
Аудио: AAC, 2 ch, 283 kbps
Код:
Код: Выделить всё
Outcast.S01E01.720p.WEB.rus.LostFilm.TV.mp4
Format                         : MPEG-4
Format profile                 : Base Media
Codec ID                       : isom (isom)
File size                      : 1.64 GiB
Duration                       : 54 min
Overall bit rate mode          : Variable
Overall bit rate               : 4 273 kb/s
Collection                     : Изгой
Season                         : 1
Album                          : Изгой, Сезон 1
Album/Performer                : Изгой
Part                           : 1
Part/Position                  : 1
Track name                     : Его окружает тьма
Track name/Position            : 1
Performer                      : Изгой
Genre                          : Drama
ContentType                    : TV Show
Recorded date                  : 2016
Encoded date                   : UTC 2016-06-06 22:14:05
Tagged date                    : UTC 2016-06-06 22:14:05
Writing application            : Yamb 2.1.0.0 [http:/yamb.unite-video.com] / LostCoder
Copyright                      : LostFilm.TV (c)
Cover                          : Yes
Comment                        : Кайл Барнс возвращается в родной городок и ведет затворнический образ жизни в доме, где прошло его безрадостное детство. Днем он успешно скрываясь от любопытных глаз, а ночью борется с кошмарами, преследующими его после одного ужасного мистического происш
Part_ID                        : 101

Video
ID                             : 1
Format                         : AVC
Format/Info                    : Advanced Video Codec
Format profile                 :
Format settings, CABAC         : No
Format settings, ReFrames      : 4 frames
Codec ID                       : avc1
Codec ID/Info                  : Advanced Video Coding
Duration                       : 54 min
Bit rate                       : 4 000 kb/s
Maximum bit rate               : 6 093 kb/s
Width                          : 1 280 pixels
Height                         : 720 pixels
Display aspect ratio           : 16:9
Frame rate mode                : Constant
Frame rate                     : 23.976 (24000/1001) FPS
Original frame rate            : 23.976 (23976/1000) FPS
Color space                    : YUV
Chroma subsampling             : 4:2:0
Bit depth                      : 8 bits
Scan type                      : Progressive
Bits/(Pixel*Frame)             : 0.181
Stream size                    : 1.53 GiB (93%)
Title                          : Imported with GPAC 0.4.6-DEV (internal rev. 5)
Writing library                : x264 core 112 r1834 a51816a
Encoding settings              : cabac=0 / ref=3 / deblock=1:0:0 / analyse=0x3:0x113 / me=hex / subme=7 / psy=1 / psy_rd=1.00:0.00 / mixed_ref=1 / me_range=16 / chroma_me=1 / trellis=1 / 8x8dct=1 / cqm=0 / deadzone=21,11 / fast_pskip=1 / chroma_qp_offset=-2 / threads=12 / sliced_threads=0 / nr=0 / decimate=1 / interlaced=0 / constrained_intra=0 / bframes=4 / b_pyramid=2 / b_adapt=1 / b_bias=0 / direct=1 / weightb=1 / open_gop=0 / weightp=2 / keyint=250 / keyint_min=25 / scenecut=40 / intra_refresh=0 / rc_lookahead=40 / rc=2pass / mbtree=1 / bitrate=4000 / ratetol=1.0 / qcomp=0.60 / qpmin=0 / qpmax=51 / qpstep=4 / cplxblur=20.0 / qblur=0.5 / vbv_maxrate=5000 / vbv_bufsize=2000 / ip_ratio=1.40 / aq=1:1.00 / nal_hrd=none
Encoded date                   : UTC 2016-06-06 20:29:33
Tagged date                    : UTC 2016-06-06 22:16:02

Audio
ID                             : 2
Format                         : AAC
Format/Info                    : Advanced Audio Codec
Format profile                 : LC
Codec ID                       : 40
Duration                       : 54 min
Bit rate mode                  : Variable
Bit rate                       : 288 kb/s
Maximum bit rate               : 368 kb/s
Channel(s)                     : 2 channels
Channel positions              : Front: L R
Sampling rate                  : 48.0 kHz
Frame rate                     : 46.875 FPS (1024 spf)
Compression mode               : Lossy
Stream size                    : 111 MiB (7%)
Encoded date                   : UTC 2016-06-06 22:16:00
Tagged date                    : UTC 2016-06-06 22:16:02
avdump\Outcast.S01E01.720p.WEB.rus.LostFilm.mp4
Duration: 00:54:58 (3298.5)
Track #1: video (Imported with GPAC 0.4.6-DEV (internal rev. 5))
lang: Unknown (1)
codc: avc1 -> H264/AVC (22)
reso: 1280x720 -> 16:9
fram: 23.976 fps
rate: 3986 kbps (3985.8)
dura: 00:54:58 (3298.42)
size: 0.00 B (0)
Track #2: audio
lang: Unknown (1)
codc: A_AAC/MPEG4/LC -> AAC (9)
chan: 2 -> Stereo
samp: 48000 Hz
rate: 283 kbps (283.17)
dura: 00:54:58 (3298.50)
size: 0.00 B (0)
Sizes: (check sanity)
disk: 1.64 GB (1761848081)
trac: 0.00 B (0) [based on track size]
bitr: 1.64 GB (1760106043) [based on bitrate]
tdif: 1.64 GB (1761848081) 100.00%
bdif: 1.66 MB (1742037) 0.09%
01. A Darkness Surrounds Him / Его окружает тьма
02. (I Remember) When She Loved Me / (Я помню) Она любила меня
03. All Alone Now / Теперь совсем один
04. A Wrath Unseen / Невиданная ярость
05. The Road Before Us / Дорога перед нами
06. From The Shadows It Watches / Из мрака оно наблюдает
07. The Damage Done / Непоправимый урон
Внимание! Раздача ведётся путём добавления новых серий; при каждом добавлении создаётся новый торрент.
Чтобы начать докачку новой серии, пользователям необходимо сделать следующее:
1. Остановить скачивание;
2. Удалить старый торрент у себя из клиента (старые серии удалять не надо);
3. Скачать новый торрент и запустить его у себя в клиенте вместо старого, при этом указать клиенту путь в старую папку куда и должно происходить скачивание новых серий. Ваш клиент при этом должен произвести хеширование (проверку) старой папки и будет докачивать только те серии, которых у вас ещё нет. Старые серии при этом не удаляются, а продолжают раздаваться! Eсли вы уже удалили старые серии, то предотвратить повторную закачку старых серий можно, отжав галочку в соответствующих местах при запуске нового торрента.

Скриншоты:




Время раздачи: 24/7 (до появления первых 3-5 скачавших)
 
Не забывайте говорить Спасибо. Не уходите с раздачи!   
Торрент: Зарегистрирован [24 июл 2016, 23:26] Для скачивания .torrent
необходима регистрация
Или скачать с помощью
MediaGet
Статус:
Проверен
 
.torrent скачан: 0 раз
Хэш: 2ac8cdc126f7cf3eb0ed21b60516c82ebfe00550
Размер: 10.44 ГБ (11 212 703 916 байт)
Стать Автором раздачи
 
 
Раздал: 100 ГБ
Скачал: 0 байт
Ратио: Seed.
Сообщения: 94048
Зарегистрирован: 09 апр 2015, 22:31


  • Похожие торренты
    Ответы
    Просмотры
    Последнее сообщение

Вернуться в Видео для мобильных устройств

Ресурс не предоставляет электронные версии произведений, а занимается лишь коллекционированием и каталогизацией ссылок, присылаемых и публикуемых на форуме нашими читателями. Если вы являетесь правообладателем какого-либо представленного материала и не желаете чтобы ссылка на него находилась в нашем каталоге, свяжитесь с нами и мы незамедлительно удалим её. Файлы для обмена на трекере предоставлены пользователями сайта, и администрация не несёт ответственности за их содержание. Просьба не заливать файлы, защищенные авторскими правами, а также файлы нелегального содержания!
cron