Б.М. Шустов. Лекция «Пыль в космосе» (2015) WEBRip [H.264] [MP4|1920х1080]

 
 Статистика раздачи 
Размер: 1001.88 МБ   |  Зарегистрирован: 15 июл 2016, 23:18   |   .torrent скачан: 0 раз
Сидеров: 1  [ 0 байт/сек ]     Личеров: 0  [ 0 байт/сек ]  
  

Б.М. Шустов. Лекция «Пыль в космосе» (2015) WEBRip [H.264] [MP4|1920х1080]

Сообщение explosiveone » 15 июл 2016, 23:18

Б.М. Шустов. Лекция «Пыль в космосе» (2015) WEBRip

Жанр: Документальный, Лекция

Ведущий: Б.М. Шустов

Описание:
Лекцию читает член-корреспондент РАН, директор института астрономии РАН, председатель экспертной рабочей группы по космическим угрозам при совете РАН по космосу, член учёного совета - Борис Михайлович Шустов.

Продолжительность: 01:33:29
Качество видео: WEBRip

Видео: AVC/H.264, 1920х1080, ~1369 Кбит/сек
Аудио: AAC, 2 ch, 126 Кбит/сек, VBR
Код:
Код: Выделить всё
Формат                                   : MPEG-4
Профиль формата                          : Base Media
Идентификатор кодека                     : isom (isom/iso2/avc1/mp41)
Размер файла                             : 1002 Мбайт
Продолжительность                        : 1 ч. 33 м.
Режим общего битрейта                    : Переменный
Общий поток                              : 1498 Кбит/сек
Дата кодирования                         : UTC 2016-01-12 23:54:23
Дата пометки                             : UTC 2016-01-12 23:54:23

Видео
Идентификатор                            : 1
Формат                                   : AVC
Формат/Информация                        : Advanced Video Codec
Профиль формата                          : High@L4
Параметр CABAC формата                   : Да
Параметр ReFrames формата                : 3 кадра
Идентификатор кодека                     : avc1
Идентификатор кодека/Информация          : Advanced Video Coding
Продолжительность                        : 1 ч. 33 м.
Битрейт                                  : 1369 Кбит/сек
Ширина                                   : 1920 пикселей
Высота                                   : 1080 пикселей
Соотношение сторон                       : 16:9
Режим частоты кадров                     : Постоянный
Частота кадров                           : 25,000 кадров/сек
Цветовое пространство                    : YUV
Субдискретизация насыщенности            : 4:2:0
Битовая глубина                          : 8 бит
Тип развёртки                            : Прогрессивная
Бит/(Пиксели*Кадры)                      : 0.026
Размер потока                            : 916 Мбайт (91%)
Дата кодирования                         : UTC 2016-01-12 23:54:23
Дата пометки                             : UTC 2016-01-12 23:54:23
Цветовой диапазон                        : Limited
Основные цвета                           : BT.709
Характеристики трансфера                 : BT.709
Коэффициенты матрицы                     : BT.709

Аудио
Идентификатор                            : 2
Формат                                   : AAC
Формат/Информация                        : Advanced Audio Codec
Профиль формата                          : LC
Идентификатор кодека                     : 40
Продолжительность                        : 1 ч. 33 м.
Вид битрейта                             : Переменный
Битрейт                                  : 126 Кбит/сек
Каналы                                   : 2 канала
Расположение каналов                     : Front: L R
Частота                                  : 44,1 КГц
Частота кадров                           : 43,066 кадра/сек (1024 spf)
Метод сжатия                             : С потерями
Размер потока                            : 84,0 Мбайт (8%)
Default                                  : Да
Alternate group                          : 1

Скриншоты:




Время раздачи: по возможности (до появления первых 3-5 скачавших)
 
Не забывайте говорить Спасибо. Не уходите с раздачи!   
Торрент: Зарегистрирован [15 июл 2016, 23:18] Для скачивания .torrent
необходима регистрация
Или скачать с помощью
MediaGet
Статус:
Проверен
 
.torrent скачан: 0 раз
Хэш: b68bfbc76739a43fd1d1529b20080fd1d67fd485
Размер: 1001.88 МБ (1 050 552 159 байт)
Стать Автором раздачи
 
 
Раздал: 100 ГБ
Скачал: 0 байт
Ратио: Seed.
Сообщения: 94021
Зарегистрирован: 09 апр 2015, 22:31


  • Похожие торренты
    Ответы
    Просмотры
    Последнее сообщение

Вернуться в Видео для мобильных устройств

Ресурс не предоставляет электронные версии произведений, а занимается лишь коллекционированием и каталогизацией ссылок, присылаемых и публикуемых на форуме нашими читателями. Если вы являетесь правообладателем какого-либо представленного материала и не желаете чтобы ссылка на него находилась в нашем каталоге, свяжитесь с нами и мы незамедлительно удалим её. Файлы для обмена на трекере предоставлены пользователями сайта, и администрация не несёт ответственности за их содержание. Просьба не заливать файлы, защищенные авторскими правами, а также файлы нелегального содержания!
cron