Сборник - Bollywood Summermix (2016) BDRip 720p

 
 Статистика раздачи 
Размер: 1.46 ГБ   |  Зарегистрирован: 14 июл 2016, 21:11   |   .torrent скачан: 0 раз
Сидеров: 1  [ 0 байт/сек ]     Личеров: 0  [ 0 байт/сек ]  
  

Сборник - Bollywood Summermix (2016) BDRip 720p

Сообщение explosiveone » 14 июл 2016, 21:11

Сборник - Bollywood Summermix (2016) BDRip 720p

Исполнитель: VA
Название: Bollywood Summermix
Год выхода: 2016
Жанр: Pop, Dance, Video-Megamix
Актеры: Аамир Кхан, Каджол, Варун Дхаван, Крити Санон и др.

Описание: Летний сборник клипов из индийских фильмов

Треклист:
01. Bajirao Mastani (Priyanka Chopra)
02. Bahubali (Tamanna Bhatia)
03. Krishnam Vande Jagadgurum
04. Arinthum Ariyamalum (Sameksha)
05. Dil To Pagal Hai
06. Dilwale (Kajol)
07. Intro
08. Desi Look
09. Dilwale (Kriti Sanon)
10. All Black (Sukhe, Raftaar)
11. Gabbar Is Back (Chitrangada Singh)
12. Dilwale (Kajol, Kriti Sanon)

Продолжительность: 00:26:50
Качество видео: BDRip
Перевод: Отсутствует
Язык: hindi

Видеокодек: MPEG4 Video (AVC)
Качество видео: BDRip 720p
Размер кадра: 1280х536
Битрейт видео: 7150 Kbps
Аудио : AC3 2.0, ~ 640 Kbps, 48000Hz, 16 bits
Код:
Код: Выделить всё
General
Unique ID                                : 188709971080640771058472935316923490182 (0x8DF837E9C6449225B894B2D9677E1F86)
Complete name                            : BollywoodSummerMix.2016.BDRip720p.mkv
Format                                   : Matroska
Format version                           : Version 4 / Version 2
File size                                : 1.46 GiB
Duration                                 : 26mn 50s
Overall bit rate                         : 7 781 Kbps
Movie name                               : 2016 V.ATAKy
Encoded date                             : UTC 2016-07-14 08:42:29

Video
ID                                       : 1
Format                                   : AVC
Format/Info                              : Advanced Video Codec
Format profile                           :
Format settings, CABAC                   : Yes
Format settings, ReFrames                : 9 frames
Codec ID                                 : V_MPEG4/ISO/AVC
Duration                                 : 26mn 50s
Bit rate                                 : 7 150 Kbps
Width                                    : 1 280 pixels
Height                                   : 536 pixels
Display aspect ratio                     : 2.40:1
Frame rate mode                          : Constant
Frame rate                               : 24.000 fps
Color space                              : YUV
Chroma subsampling                       : 4:2:0
Bit depth                                : 8 bits
Scan type                                : Progressive
Bits/(Pixel*Frame)                       : 0.434
Stream size                              : 1.31 GiB (90%)
Writing library                          : x264 core 148 r2705M 3f5ed56
Encoding settings                        : cabac=1 / ref=9 / deblock=1:-1:-1 / analyse=0x3:0x133 / me=umh / subme=11 / psy=1 / psy_rd=1.05:0.10 / mixed_ref=1 / me_range=32 / chroma_me=1 / trellis=2 / 8x8dct=1 / cqm=0 / deadzone=21,11 / fast_pskip=0 / chroma_qp_offset=-3 / threads=5 / lookahead_threads=1 / sliced_threads=0 / nr=0 / decimate=1 / interlaced=0 / bluray_compat=0 / constrained_intra=0 / bframes=9 / b_pyramid=2 / b_adapt=2 / b_bias=0 / direct=3 / weightb=1 / open_gop=0 / weightp=2 / keyint=240 / keyint_min=24 / scenecut=40 / intra_refresh=0 / rc_lookahead=40 / rc=2pass / mbtree=1 / bitrate=7150 / ratetol=1.0 / qcomp=0.70 / qpmin=3 / qpmax=69 / qpstep=4 / cplxblur=20.0 / qblur=0.5 / ip_ratio=1.40 / aq=2:1.00
Language                                 : Hindi
Default                                  : Yes
Forced                                   : No

Audio
ID                                       : 2
Format                                   : AC-3
Format/Info                              : Audio Coding 3
Mode extension                           : CM (complete main)
Format settings, Endianness              : Big
Codec ID                                 : A_AC3
Duration                                 : 26mn 50s
Bit rate mode                            : Constant
Bit rate                                 : 640 Kbps
Channel(s)                               : 2 channels
Channel positions                        : Front: L R
Sampling rate                            : 48.0 KHz
Bit depth                                : 16 bits
Compression mode                         : Lossy
Stream size                              : 123 MiB (8%)
Language                                 : Hindi
Default                                  : Yes
Forced                                   : No

Menu
00:00:00.000                             : hi:00:00:00.000
00:03:10.900                             : hi:00:03:10.900
00:05:18.903                             : hi:00:05:18.903
00:07:26.000                             : hi:00:07:26.000
00:09:17.378                             : hi:00:09:17.378
00:12:34.000                             : hi:00:12:34.000
00:15:34.263                             : hi:00:15:34.263
00:18:37.000                             : hi:00:18:37.000
00:20:50.000                             : hi:00:20:50.000
00:21:43.000                             : hi:00:21:43.000
00:24:43.000                             : hi:00:24:43.000
Разбивка по трекам имеется.

Скриншоты:


Время раздачи: 23:00-8:30 (до появления первых 3-5 скачавших)
 
Не забывайте говорить Спасибо. Не уходите с раздачи!   
Торрент: Зарегистрирован [14 июл 2016, 21:11] Скачать торрент
Скачать торрент
[ Размер 15.29 КБ / Просмотров 25 ]
Статус:
Проверен
 
.torrent скачан: 0 раз
Хэш: 48d91d6c26ac779c7e69fe52a5d62a9d9b3ee37e
Размер: 1.46 ГБ (1 566 724 296 байт)
Стать Автором раздачи
 
 
Раздал: 100 ГБ
Скачал: 0 байт
Ратио: Seed.
Сообщения: 111480
Зарегистрирован: 09 апр 2015, 22:31


  • Похожие торренты
    Ответы
    Просмотры
    Последнее сообщение

Вернуться в Музыкальные клипы (транзит)

Ресурс не предоставляет электронные версии произведений, а занимается лишь коллекционированием и каталогизацией ссылок, присылаемых и публикуемых на форуме нашими читателями. Если вы являетесь правообладателем какого-либо представленного материала и не желаете чтобы ссылка на него находилась в нашем каталоге, свяжитесь с нами и мы незамедлительно удалим её. Файлы для обмена на трекере предоставлены пользователями сайта, и администрация не несёт ответственности за их содержание. Просьба не заливать файлы, защищенные авторскими правами, а также файлы нелегального содержания!
cron