Сборник клипов - Philizz "Tropical Summer" (2016) HDTV [1080p]

 
 Статистика раздачи 
Размер: 2.04 ГБ   |  Зарегистрирован: 14 июл 2016, 01:27   |   .torrent скачан: 2 раз
Сидеров: 1  [ 0 байт/сек ]     Личеров: 0  [ 0 байт/сек ]  
  

Сборник клипов - Philizz "Tropical Summer" (2016) HDTV [1080p]

Сообщение explosiveone » 14 июл 2016, 01:27

Сборник клипов - Philizz "Tropical Summer" (2016) HDTV [1080p]

Исполнитель: Philizz
Название: Tropical Summer 2016
Год выхода: 2016
Жанр: Pop, Club, Dance, Video-Megamix
Продолжительность: 00:57:10

Описание:
Сборник клипов "Tropical Summer 2016" - фирменный видеомикс от голландского ви-джея Philizz. Устройтесь поудобнее, расслабьтесь и наслаждайтесь!
Видеомикс - это видеосборник,составленный из небольших фрагментов клипов. Довольно новое явление в современной музыкальной культуре, насчитывает всего несколько лет, и все больше и больше приобретает популярность.
- Разбивка по трекам отсутствует.

Видеокодек: MPEG4 (AVC)
Качество видео: HDTV
Размер кадра: 1920х1080
Битрейт видео: 4950 Kbps
Аудиокодек: AАC 2.0
Битрейт аудио: 152-192 Kbps (VBR)

Треклист:
Twenty One Pilots - Stressed Out (Tomsize Remix)
Alan Walker - Sing Me To Sleep
Sigala ft. Imani & DJ Fresh - Say You Do
Eagles - Hotel California (Diezeo Remix)
RedOne ft. Enrique Iglesias, R. City - Don't You Need Somebody
Akon - Right Now (Na Na Na Spectra Remix)
Charlie Puth - One Call Away (KLYMVX Remix)
Coldplay - Hymn For The Weekend (Jaeriah ft. PRESLEY Remix)
The Lion King - Can You Feel The Love (Mau Likauea's Remix)
Troye Sivan - Youth
Ace Of Base - All That She Wants (Goldwave Remix)
Sia - Cheap Thrills (Giannex Remix)
Alan Walker - Faded (Phi Leo Remix)
Shawn Mendes - Stitches (SeeB Remix)
Flor - Unsaid (Instant Karma Remix)
Ellie Goulding - Love Me Like You Do (Sandh Remix)
Adele - Hello (Banana Beats Collective Beta Remix)
Stevie Wonder & Coolio - Gangsta Paradise (Godlips Remix)
Mike Posner - I Took A Pill In Ibiza (SeeB Remix)
Will Smith - Fresh Prince Of Bel Air (Le Boeuf Remix)
Oasis - Wonderwall (Los Garcia Remix)
Iyaz - Replay (Roial Remix)
Marlon Roudette - When The Beat Drops Out (Matoma Remix)
Macklemore ft. Ed Sheeran - Same Love (Faul & Wad Remix)
Kygo ft. Maty Noyes - Stay
Major Lazer - Light It Up (Miquel Vargas Remix)
Will Smith - Miami (Matoma Remix)
R. City ft. Adam Levine - Locked Away (Benji Reyes Remix)
Justin Bieber - What Do You Mean (Myo Myo Remix)
Justin Bieber - Sorry (Thombs Remix)
Jason Derulo - Want To Want Me (Yari Remix)
Cheat Codes x Kris Kross Amsterdam - Sex (DJ Heckfy Remix)
Justin Timberlake - Can't Stop The Feeling
Rihanna ft. Drake - Work (Alex Stan Remix)
Jonas Blue ft. Dakota - Fast Car (James Doherty Remix)
Years & Years - Shine (Hibell Remix)
Sigala - Sweet Lovin'
Код:
Код: Выделить всё
Общее
Полное имя : Philizz Tropical Summer 2016.HDTV1080p.mp4
Формат : MPEG-4
Профиль формата : Base Media
Идентификатор кодека : isom (isom/iso2/avc1/mp41)
Размер файла : 2,04 Гбайт
Продолжительность : 57 м.
Режим общего битрейта : Переменный
Общий поток : 5107 Кбит/сек
Программа кодирования : Lavf55.48.100

Видео
Идентификатор : 1
Формат : AVC
Формат/Информация : Advanced Video Codec
Профиль формата : High@L4
Параметр CABAC формата : Да
Параметр ReFrames формата : 4 кадра
Идентификатор кодека : avc1
Идентификатор кодека/Информация : Advanced Video Coding
Продолжительность : 57 м.
Битрейт : 4950 Кбит/сек
Ширина : 1920 пикселей
Высота : 1080 пикселей
Соотношение сторон : 16:9
Режим частоты кадров : Постоянный
Частота кадров : 25,000 кадров/сек
Цветовое пространство : YUV
Субдискретизация насыщенности : 4:2:0
Битовая глубина : 8 бит
Тип развёртки : Прогрессивная
Бит/(Пиксели*Кадры) : 0.095
Размер потока : 1,98 Гбайт (97%)
Библиотека кодирования : x264 core 142
Настройки программы : cabac=1 / ref=3 / deblock=1:0:0 / analyse=0x3:0x113 / me=hex / subme=7 / psy=1 / psy_rd=1.00:0.00 / mixed_ref=1 / me_range=16 / chroma_me=1 / trellis=1 / 8x8dct=1 / cqm=0 / deadzone=21,11 / fast_pskip=1 / chroma_qp_offset=-2 / threads=6 / lookahead_threads=1 / sliced_threads=0 / nr=0 / decimate=1 / interlaced=0 / bluray_compat=0 / constrained_intra=0 / bframes=3 / b_pyramid=2 / b_adapt=1 / b_bias=0 / direct=1
/ weightb=1 / open_gop=0 / weightp=2 / keyint=25 / keyint_min=2 / scenecut=40 / intra_refresh=0 / c_lookahead=25 / rc=2pass / mbtree=1 / bitrate=4950 / ratetol=1.0 / qcomp=0.60 / qpmin=0 / qpmax=69 / qpstep=4 / cplxblur=20.0 / qblur=0.5 / ip_ratio=1.40 / aq=1:1.00

Аудио
Идентификатор : 2
Формат : AAC
Формат/Информация : Advanced Audio Codec
Профиль формата : LC
Идентификатор кодека : 40
Продолжительность : 57 м.
Duration_LastFrame : -19 мс.
Вид битрейта : Переменный
Битрейт : 152 Кбит/сек
Максимальный битрейт : 192 Кбит/сек
Каналы : 2 канала
Расположение каналов : Front: L R
Частота : 44,1 КГц
Частота кадров : 43,066 кадра/сек (1024 spf)
Метод сжатия : С потерями
Размер потока : 62,1 Мбайт (3%)
Default : Да
Alternate group : 1
Скриншоты:


Время раздачи: 24/7
Приятного просмотра Philizz Tropical Summer 2016!

 
Не забывайте говорить Спасибо. Не уходите с раздачи!   
Торрент: Зарегистрирован [14 июл 2016, 01:27] Скачать торрент
Скачать торрент
[ Размер 10.95 КБ / Просмотров 24 ]
Статус:
Проверен
 
.torrent скачан: 2 раз
Хэш: ef2193692e50f1aac08c3ecf11d55b478a3e76fc
Размер: 2.04 ГБ (2 189 725 166 байт)
Стать Автором раздачи
 
 
Раздал: 100 ГБ
Скачал: 0 байт
Ратио: Seed.
Сообщения: 108845
Зарегистрирован: 09 апр 2015, 22:31


  • Похожие торренты
    Ответы
    Просмотры
    Последнее сообщение

Вернуться в Музыкальные клипы (транзит)

Ресурс не предоставляет электронные версии произведений, а занимается лишь коллекционированием и каталогизацией ссылок, присылаемых и публикуемых на форуме нашими читателями. Если вы являетесь правообладателем какого-либо представленного материала и не желаете чтобы ссылка на него находилась в нашем каталоге, свяжитесь с нами и мы незамедлительно удалим её. Файлы для обмена на трекере предоставлены пользователями сайта, и администрация не несёт ответственности за их содержание. Просьба не заливать файлы, защищенные авторскими правами, а также файлы нелегального содержания!
cron