Хардкор / Hardcore Henry (Илья Найшуллер / Ilya Naishuller) [2015 г., боевик, фантастика, WEB-DL, 1080p] Dub (iTunes) + Original (Eng) + Sub (Eng)

 
 Статистика раздачи 
Размер: 4.05 ГБ   |  Зарегистрирован: 13 июл 2016, 17:24   |   .torrent скачан: 0 раз
Сидеров: 1  [ 0 байт/сек ]     Личеров: 0  [ 0 байт/сек ]  
  

Хардкор / Hardcore Henry (Илья Найшуллер / Ilya Naishuller) [2015 г., боевик, фантастика, WEB-DL, 1080p] Dub (iTunes) + Original (Eng) + Sub (Eng)

Сообщение i926 » 13 июл 2016, 17:24


Хардкор / Hardcore Henry

«First they made him dangerous. Then they made him mad.»

Производство: Россия, США
Год выпуска: 2015 г.
Жанр: боевик, фантастика
Продолжительность: 01:36:45
Перевод: Профессиональный (полное дублирование) [ iTunes]
Оригинальный аудиопоток: английский
Режиссер: Илья Найшуллер / Ilya Naishuller
В ролях: Шарлто Копли, Данила Козловский, Хейли Беннетт, Андрей Дементьев, Сергей Шнуров, Кирилл Серебренников, Александр Паль, Светлана Устинова, Даша Чаруша, Равшана Куркова
Описание: Прекрасная супружеская жизнь рядом с очаровательной Эстель – это все, что помнит главный герой после того, как просыпается в неизвестной научной лаборатории, где в чувства его приводит собственная жена. Но супруга тут же оказывается похищенной, и ничего не понимающий главный герой Генри уже вынужден преследовать монстра Акана, который украл его жену.
Теперь ради достижения цели Генри готов на многое. Но позже оказывается, что не только он один является врагом для Акана. У подозрительного Джимми тоже свои планы на злодея. Теперь вместе ребятам предстоит спасти Эстель и предотвратить попытку задействовать армию киборгов в борьбе с человечеством. Им предстоит бороться с самим воплощением зла.


Качество видео: WEB-DL
Контейнер: MKV
Стандарт разрешения: 1080p
Видео кодек: H.264/AVC
Аудио кодек: AC3
Видео: 1920x1032 at 23.976 fps, ~5000 kbps avg
Аудио: Russian: 48 kHz, AC3, 3/2 (L,C,R,l,r) + LFE ch, ~384.00 kbps avg |Дубляж, iTunes Russia|
Аудио #2: English: 48 kHz, AC3, 3/2 (L,C,R,l,r) + LFE ch, ~384.00 kbps avg
Cубтитры: английские
• По словам Ильи Найшуллера, предложение от Тимура Бекмамбетова о сотрудничестве поступило к нему через социальную сеть.
• Несмотря на насыщенность фильма событиями, по сюжету, действие «Хардкора» занимает всего один день.
• Для съемок фильма использовалась камера «GoPro», получившая широкую популярность среди любителей экстремального отдыха. Специально для создания фильма была разработана уникальная технология стабилизации камеры – Adventure mask.
• Роль танкиста, которую сыграл Кирилл Серебренников, мог исполнить Дмитрий Пучков.
• На роль злодея долго не могли подобрать актера, в результате так и остановились на изначальной кандидатуре Данилы Козловского. Когда ему впервые предложили эту роль, он был занят в другом проекте. За несколько месяцев более подходящего актера не нашлось, и как только Данила освободился, сразу же согласился участвовать в проекте.
• Фильм стал развитием темы и стилистики видеоряда вышедшего весной 2013 года клипа на песню Bad Motherfucker инди-рок-группы Biting Elbows. Ролик быстро стал популярным, собрав за месяц более 23 миллионов просмотров на YouTube. На видео, снятое от первого лица, обратил внимание Тимур Бекмамбетов, который предложил автору ролика создать полнометражную ленту. Илья Найшуллер вначале отказался от этого предложения, но затем принял его и стал сценаристом и режиссёром «Хардкора».
• Кампания по сбору средств на съемки фильма проходила на краудфандинговом портале «Indiegogo» и завершилась 19 декабря 2014. Общий сбор от 2078 человек составил $254 954.
• Для изменения цвета глаз Данилы Козловского гримеры использовали линзы, которые были вдвое толще обычных и были окрашены вручную в голубой цвет.
Код:
Код: Выделить всё
Format                      : Matroska
Format version              : Version 2
File size                   : 4.05 GiB
Duration                    : 1h 36mn
Overall bit rate            : 5 994 Kbps
Movie name                  : Hardcore Henry (2015) - Release for HDCLUB
Encoded date                : UTC 2016-07-11 20:41:45
Writing application         : mkvmerge v3.4.0 ('Rapunzel') built on May 15 2010 09:38:20
Writing library             : libebml v0.8.0 + libmatroska v0.9.0
Attachements                : cover_land.jpg / small_cover.jpg / small_cover_land.jpg / cover.jpg
Video
ID                          : 1
Format                      : AVC
Format/Info                 : Advanced Video Codec
Format profile              : [url=http://pirat.ca/cdn-cgi/l/email-protection][email protected][/url]
Format settings, CABAC      : Yes
Format settings, ReFrames   : 4 frames
Codec ID                    : V_MPEG4/ISO/AVC
Duration                    : 1h 36mn
Bit rate                    : 5 106 Kbps
Width                       : 1 920 pixels
Height                      : 1 032 pixels
Display aspect ratio        : 1.85:1
Frame rate mode             : Constant
Frame rate                  : 23.976 fps
Color space                 : YUV
Chroma subsampling          : 4:2:0
Bit depth                   : 8 bits
Scan type                   : Progressive
Bits/(Pixel*Frame)          : 0.107
Stream size                 : 3.45 GiB (85%)
Title                       : Hardcore Henry (2015) - Release for HDCLUB
Language                    : English
Default                     : Yes
Forced                      : No
Color primaries             : BT.709
Transfer characteristics    : BT.709
Matrix coefficients         : BT.709
Color range                 : Limited
Audio #1
ID                          : 2
Format                      : AC-3
Format/Info                 : Audio Coding 3
Mode extension              : CM (complete main)
Format settings, Endianness : Big
Codec ID                    : A_AC3
Duration                    : 1h 36mn
Bit rate mode               : Constant
Bit rate                    : 384 Kbps
Channel(s)                  : 6 channels
Channel positions           : Front: L C R, Side: L R, LFE
Sampling rate               : 48.0 KHz
Bit depth                   : 16 bits
Compression mode            : Lossy
Stream size                 : 266 MiB (6%)
Title                       : AC3 5.1 @ 384 kbps - DUB, iTunes
Language                    : Russian
Default                     : Yes
Forced                      : No
Audio #2
ID                          : 3
Format                      : AC-3
Format/Info                 : Audio Coding 3
Mode extension              : CM (complete main)
Format settings, Endianness : Big
Codec ID                    : A_AC3
Duration                    : 1h 36mn
Bit rate mode               : Constant
Bit rate                    : 384 Kbps
Channel(s)                  : 6 channels
Channel positions           : Front: L C R, Side: L R, LFE
Sampling rate               : 48.0 KHz
Bit depth                   : 16 bits
Compression mode            : Lossy
Stream size                 : 266 MiB (6%)
Title                       : AC3 5.1 @ 384 kbps
Language                    : English
Default                     : No
Forced                      : No
Text
ID                          : 4
Format                      : UTF-8
Codec ID                    : S_TEXT/UTF8
Codec ID/Info               : UTF-8 Plain Text
Language                    : English
Default                     : No
Forced                      : No
Menu
00:00:00.000                : en:Opening Sequence
00:04:00.000                : en:I Love You Henry
00:12:07.000                : en:Mercenaries
00:18:41.000                : en:I'm Kidding!
00:26:08.000                : en:You're Half Machine
00:34:15.000                : en:I Can't Do It
00:39:20.000                : en:Just Say Yes
00:43:57.000                : en:I Was So Scared
00:48:52.000                : en:Reboot
00:53:25.000                : en:Don't Compromise My Lab
00:59:36.000                : en:Under My Skin
01:07:16.000                : en:No More Lab
01:11:20.000                : en:The Memory Block
01:15:30.000                : en:The Soldiers
01:24:06.000                : en:You Didn't Make History
01:29:27.000                : en:End Credits

 
Не забывайте говорить Спасибо. Не уходите с раздачи!   
Торрент: Зарегистрирован [13 июл 2016, 17:24] Скачать торрент
Скачать торрент
[ Размер 40.89 КБ / Просмотров 111 ]
Статус:
Проверен
 
.torrent скачан: 0 раз
Хэш: 8bf69b9e359ba5ede0d2e8964c58b86a56e6ea4e
Размер: 4.05 ГБ (4 349 964 835 байт)
Стать Автором раздачи
 
Аватара пользователя
Главный редактор
Главный редактор
 
Раздал: 15.43 ТБ
Скачал: 13.78 ТБ
Ратио: 1.120
Сообщения: 65451
Зарегистрирован: 01 мар 2011, 23:07


  • Похожие торренты
    Ответы
    Просмотры
    Последнее сообщение

Вернуться в Отраслевые конфигурации

Ресурс не предоставляет электронные версии произведений, а занимается лишь коллекционированием и каталогизацией ссылок, присылаемых и публикуемых на форуме нашими читателями. Если вы являетесь правообладателем какого-либо представленного материала и не желаете чтобы ссылка на него находилась в нашем каталоге, свяжитесь с нами и мы незамедлительно удалим её. Файлы для обмена на трекере предоставлены пользователями сайта, и администрация не несёт ответственности за их содержание. Просьба не заливать файлы, защищенные авторскими правами, а также файлы нелегального содержания!
cron