Дикие земли Европы [3 серии из 3] / Europe's Great Wilderness (Элен Уиндемут / Ellen Windemuth) [2015, Документальный, HDTV 1080i]

 
 Статистика раздачи 
Размер: 7.05 ГБ   |  Зарегистрирован: 13 июл 2016, 00:31   |   .torrent скачан: 1 раз
Сидеров: 3  [ 0 байт/сек ]     Личеров: 1  [ 0 байт/сек ]  
  

Дикие земли Европы [3 серии из 3] / Europe's Great Wilderness (Элен Уиндемут / Ellen Windemuth) [2015, Документальный, HDTV 1080i]

Сообщение aLaVodka » 13 июл 2016, 00:31

Дикие земли Европы / Europe's Great Wilderness

UPDATE: раздача преобразована в пак, добавлен фильм "Жизнь при минусовых температурах"
UPDATE: Добавлен фильм "Живые воды Европы". Эфирный рип для обработки любезно предоставил

Год выпуска: 2015
Страна: Великобритания
Студия: Off the Fence
Жанр: Документальный
Режиссер: Элен Уиндемут / Ellen Windemuth
Продолжительность: ~00:44:00 на серию
Перевод: Студийный (одноголосый закадровый)
Доп. инфо о переводе: студия "Велес" - Олег Белов
Описание: Земли Европы иссечены ручьями, реками и озерами, которые стали домом для множества различных видов существ.

Сэмпл: http://rusfolder.com/45078568

Тип релиза: HDTV 1080i
Контейнер: MKV

Видео: 1920x1080 (16:9 PAL HD), H.264 [AVC] Level 4, 25 fps, Interlaced, ABR 9000 kbps
Аудио: Russian (VO "Велес"), MPEG1-Layer 2, 48000 Hz, 2.0ch Stereo, CBR 192 kbps
Жизнь при минусовых температурах
Зеленое сердце континента
[*]Живые воды Европы
Код: Выделить всё
General
Unique ID                                : 244247352819273290806697809295173225448 (0xB7C0543D7C4DF3A320A191E376DC0BE8)
Complete name                            : Зеленое сердце континента.mkv
Format                                   : Matroska
Format version                           : Version 4 / Version 2
File size                                : 2.78 GiB
Duration                                 : 44mn 2s
Overall bit rate                         : 9 028 Kbps
Encoded date                             : UTC 2016-06-12 11:08:18
Writing application                      : mkvmerge v9.2.0 ('Photograph') 64bit
Writing library                          : libebml v1.3.3 + libmatroska v1.4.4
DURATION                                 : 00:46:47.592000000
NUMBER_OF_FRAMES                         : 110100
NUMBER_OF_BYTES                          : 63417600
_STATISTICS_WRITING_APP                  : mkvmerge v9.2.0 ('Photograph') 64bit
_STATISTICS_WRITING_DATE_UTC             : 2016-06-12 11:08:18
_STATISTICS_TAGS                         : BPS DURATION NUMBER_OF_FRAMES NUMBER_OF_BYTES

Video
ID                                       : 1
Format                                   : AVC
Format/Info                              : Advanced Video Codec
Format profile                           : Main@L4.0
Format settings, CABAC                   : Yes
Format settings, ReFrames                : 4 frames
Codec ID                                 : V_MPEG4/ISO/AVC
Duration                                 : 44mn 2s
Bit rate                                 : 8 656 Kbps
Width                                    : 1 920 pixels
Height                                   : 1 080 pixels
Display aspect ratio                     : 16:9
Frame rate mode                          : Constant
Frame rate                               : 25.000 fps
Standard                                 : Component
Color space                              : YUV
Chroma subsampling                       : 4:2:0
Bit depth                                : 8 bits
Scan type                                : Interlaced
Scan order                               : Top Field First
Bits/(Pixel*Frame)                       : 0.167
Stream size                              : 2.66 GiB (96%)
Default                                  : Yes
Forced                                   : No
Color primaries                          : BT.709
Transfer characteristics                 : BT.709
Matrix coefficients                      : BT.709

Audio
ID                                       : 2
Format                                   : MPEG Audio
Format version                           : Version 1
Format profile                           : Layer 2
Mode                                     : Joint stereo
Mode extension                           : Intensity Stereo + MS Stereo
Codec ID                                 : A_MPEG/L2
Codec ID/Hint                            : MP2
Duration                                 : 44mn 2s
Bit rate mode                            : Constant
Bit rate                                 : 192 Kbps
Channel(s)                               : 2 channels
Sampling rate                            : 48.0 KHz
Compression mode                         : Lossy
Delay relative to video                  : 10ms
Stream size                              : 60.5 MiB (2%)
Title                                    : Russian VO (студия "Велес") - Олег Белов
Language                                 : Russian
Default                                  : Yes
Forced                                   : No

Код: Выделить всё
General
Unique ID                                : 33330537741702071388557859960136676936 (0x19133A62CA6EED57E42115174E4C3648)
Complete name                            : Жизнь при минусовых температурах.mkv
Format                                   : Matroska
Format version                           : Version 4 / Version 2
File size                                : 1.55 GiB
Duration                                 : 44mn 0s
Overall bit rate                         : 5 056 Kbps
Encoded date                             : UTC 2016-06-22 17:26:43
Writing application                      : mkvmerge v9.2.0 ('Photograph') 64bit
Writing library                          : libebml v1.3.3 + libmatroska v1.4.4
DURATION                                 : 00:45:14.808000000
NUMBER_OF_FRAMES                         : 110010
NUMBER_OF_BYTES                          : 63365760
_STATISTICS_WRITING_APP                  : mkvmerge v9.2.0 ('Photograph') 64bit
_STATISTICS_WRITING_DATE_UTC             : 2016-06-22 17:26:43
_STATISTICS_TAGS                         : BPS DURATION NUMBER_OF_FRAMES NUMBER_OF_BYTES

Video
ID                                       : 1
Format                                   : AVC
Format/Info                              : Advanced Video Codec
Format profile                           : Main@L4.0
Format settings, CABAC                   : Yes
Format settings, ReFrames                : 4 frames
Codec ID                                 : V_MPEG4/ISO/AVC
Duration                                 : 44mn 0s
Bit rate                                 : 4 764 Kbps
Width                                    : 1 920 pixels
Height                                   : 1 080 pixels
Display aspect ratio                     : 16:9
Frame rate mode                          : Constant
Frame rate                               : 25.000 fps
Standard                                 : Component
Color space                              : YUV
Chroma subsampling                       : 4:2:0
Bit depth                                : 8 bits
Scan type                                : Interlaced
Scan order                               : Top Field First
Bits/(Pixel*Frame)                       : 0.092
Stream size                              : 1.46 GiB (94%)
Default                                  : Yes
Forced                                   : No
Color primaries                          : BT.709
Transfer characteristics                 : BT.709
Matrix coefficients                      : BT.709

Audio
ID                                       : 2
Format                                   : MPEG Audio
Format version                           : Version 1
Format profile                           : Layer 2
Codec ID                                 : A_MPEG/L2
Codec ID/Hint                            : MP2
Duration                                 : 44mn 0s
Bit rate mode                            : Constant
Bit rate                                 : 192 Kbps
Channel(s)                               : 2 channels
Sampling rate                            : 48.0 KHz
Compression mode                         : Lossy
Delay relative to video                  : 6ms
Stream size                              : 60.4 MiB (4%)
Title                                    : Russian VO (студия "Велес") - Олег Белов
Language                                 : Russian
Default                                  : Yes
Forced                                   : No

 
Не забывайте говорить Спасибо. Не уходите с раздачи!   
Торрент: Зарегистрирован [13 июл 2016, 00:31] Для скачивания .torrent
необходима регистрация
Или скачать с помощью
MediaGet
Статус:
Проверен
 
.torrent скачан: 1 раз
Хэш: 71b59b79b3fb502bf5c2d6fb25953acd4d3057a0
Размер: 7.05 ГБ (7 570 026 539 байт)
Стать Автором раздачи
 
 
Раздал: 100 ГБ
Скачал: 0 байт
Ратио: Seed.
Сообщения: 186453
Зарегистрирован: 09 апр 2015, 20:00


  • Похожие торренты
    Ответы
    Просмотры
    Последнее сообщение

Вернуться в Флора и фауна (HD Video)

Кто сейчас на конференции

Сейчас эту тему просматривают: нет зарегистрированных пользователей и гости: 1

Ресурс не предоставляет электронные версии произведений, а занимается лишь коллекционированием и каталогизацией ссылок, присылаемых и публикуемых на форуме нашими читателями. Если вы являетесь правообладателем какого-либо представленного материала и не желаете чтобы ссылка на него находилась в нашем каталоге, свяжитесь с нами и мы незамедлительно удалим её. Файлы для обмена на трекере предоставлены пользователями сайта, и администрация не несёт ответственности за их содержание. Просьба не заливать файлы, защищенные авторскими правами, а также файлы нелегального содержания!