В. К. Гаранин. Лекция «Алмазы неба и земли» (2015) WEBRip [H.264] [MP4|1920х1080]

 
 Статистика раздачи 
Размер: 922.04 МБ   |  Зарегистрирован: 11 июл 2016, 18:46   |   .torrent скачан: 0 раз
Сидеров: 1  [ 0 байт/сек ]     Личеров: 0  [ 0 байт/сек ]  
  

В. К. Гаранин. Лекция «Алмазы неба и земли» (2015) WEBRip [H.264] [MP4|1920х1080]

Сообщение explosiveone » 11 июл 2016, 18:46

В.К. Гаранин. Лекция «Алмазы неба и земли» (2015) WEBRip

Жанр: Документальный, Лекция

Ведущий: В.К. Гаранин

Описание:
Лекцию читает доктор геолого-минералогических наук, профессор Геологического факультета МГУ имени М.В. Ломоносова, директор Минералогического музея имени А.Е. Ферсмана; академик РАЕН, Лауреат Премии правительства России в области науки и техники, Лауреат Премии им. академика А.Е. Ферсмана Российской академии наук; крупнейший специалист по минералогии кимберлитов и алмазов Виктор Константинович Гаранин.

Продолжительность: 01:44:42
Качество видео: WEBRip

Видео: AVC/H.264, 1920х1080, ~1231 Кбит/сек
Аудио: AAC, 2 ch, 126 Кбит/сек, VBR
Код:
Код: Выделить всё
Формат                                   : MPEG-4
Профиль формата                          : Base Media
Идентификатор кодека                     : isom (isom/iso2/avc1/mp41)
Размер файла                             : 922 Мбайт
Продолжительность                        : 1 ч. 44 м.
Режим общего битрейта                    : Переменный
Общий поток                              : 1231 Кбит/сек
Дата кодирования                         : UTC 2015-11-07 10:43:28
Дата пометки                             : UTC 2015-11-07 10:43:28

Видео
Идентификатор                            : 1
Формат                                   : AVC
Формат/Информация                        : Advanced Video Codec
Профиль формата                          : High@L4
Параметр CABAC формата                   : Да
Параметр ReFrames формата                : 3 кадра
Идентификатор кодека                     : avc1
Идентификатор кодека/Информация          : Advanced Video Coding
Продолжительность                        : 1 ч. 44 м.
Битрейт                                  : 1101 Кбит/сек
Ширина                                   : 1920 пикселей
Высота                                   : 1080 пикселей
Соотношение сторон                       : 16:9
Режим частоты кадров                     : Переменный
Частота кадров                           : 23,976 (24000/1001) кадра/сек
Минимальная частота кадров               : 23,974 кадра/сек
Максимальная частота кадров              : 23,981 кадра/сек
Цветовое пространство                    : YUV
Субдискретизация насыщенности            : 4:2:0
Битовая глубина                          : 8 бит
Тип развёртки                            : Прогрессивная
Бит/(Пиксели*Кадры)                      : 0.022
Размер потока                            : 825 Мбайт (89%)
Дата кодирования                         : UTC 2015-11-07 10:43:28
Дата пометки                             : UTC 2015-11-07 10:43:28
Цветовой диапазон                        : Limited
Основные цвета                           : BT.709
Характеристики трансфера                 : BT.709
Коэффициенты матрицы                     : BT.709

Аудио
Идентификатор                            : 2
Формат                                   : AAC
Формат/Информация                        : Advanced Audio Codec
Профиль формата                          : LC
Идентификатор кодека                     : 40
Продолжительность                        : 1 ч. 44 м.
Вид битрейта                             : Переменный
Битрейт                                  : 126 Кбит/сек
Каналы                                   : 2 канала
Расположение каналов                     : Front: L R
Частота                                  : 44,1 КГц
Частота кадров                           : 43,066 кадра/сек (1024 spf)
Метод сжатия                             : С потерями
Размер потока                            : 94,1 Мбайт (10%)
Default                                  : Да
Alternate group                          : 1

Скриншоты:



Время раздачи: по возможности (до появления первых 3-5 скачавших)
 
Не забывайте говорить Спасибо. Не уходите с раздачи!   
Торрент: Зарегистрирован [11 июл 2016, 18:46] Для скачивания .torrent
необходима регистрация
Или скачать с помощью
MediaGet
Статус:
Проверен
 
.torrent скачан: 0 раз
Хэш: 9ab48a9a24d7b09140072bfc42256ef88da1a57a
Размер: 922.04 МБ (966 832 457 байт)
Стать Автором раздачи
 
 
Раздал: 100 ГБ
Скачал: 0 байт
Ратио: Seed.
Сообщения: 94005
Зарегистрирован: 09 апр 2015, 22:31


  • Похожие торренты
    Ответы
    Просмотры
    Последнее сообщение

Вернуться в Видео для мобильных устройств

Ресурс не предоставляет электронные версии произведений, а занимается лишь коллекционированием и каталогизацией ссылок, присылаемых и публикуемых на форуме нашими читателями. Если вы являетесь правообладателем какого-либо представленного материала и не желаете чтобы ссылка на него находилась в нашем каталоге, свяжитесь с нами и мы незамедлительно удалим её. Файлы для обмена на трекере предоставлены пользователями сайта, и администрация не несёт ответственности за их содержание. Просьба не заливать файлы, защищенные авторскими правами, а также файлы нелегального содержания!
cron