Агрессивная среда (часть 2, серии 11-20) [2013-2015, Документальный, HDTV 1080i]

 
 Статистика раздачи 
Размер: 22.85 ГБ   |  Зарегистрирован: 11 июл 2016, 14:24   |   .torrent скачан: 0 раз
Сидеров: 4  [ 0 байт/сек ]     Личеров: 1  [ 0 байт/сек ]  
  

Агрессивная среда (часть 2, серии 11-20) [2013-2015, Документальный, HDTV 1080i]

Сообщение aLaVodka » 11 июл 2016, 14:24

Агрессивная среда (часть 2, серии 11-20)

Год выпуска: 2013-2015
Страна: Россия
Жанр: Документальный
Продолжительность: 10 x 45 минут
Перевод: Не требуется
Описание: Цикл передач "Агрессивная среда" - это научное расследование, где автор вместе со зрителями пытается посмотреть на проблему с разных точек зрения. Нам ежедневно угрожает множество опасных факторов, но человечество учится приспосабливаться и противостоять неблагоприятной среде, а порой и использовать ее в своих целях. От дорожных пробок до открытого огня - Александре Говорченко предстоит погрузиться с головой в каждую тему программы.

Список серий:
11. Агрессивная среда. Дороги
12. Агрессивная среда. Экстремальное выживание
13. Агрессивная среда. Аллергия
14. Агрессивная среда. Разрушительная погода - Фильм 1
15. Агрессивная среда. Разрушительная погода - Фильм 2
16. Агрессивная среда. Подземные опасности
17. Агрессивная среда. Бактерии
18. Агрессивная среда. Кислоты
19. Агрессивная среда. Скорость
20. Агрессивная среда. Давление

Предыдущие серии:
Доп. информация: IPTV Remux (запись потока без перекодирования)

Тип релиза: HDTV 1080i
Контейнер: TS

Видео: AVC H.264, 1920x1080i (16:9), 25 fps, 7118 kbps , 0.137 bits/pixel
Аудио: MPEG Audio, 2 channels, 192 kbps, 48KHz
11. Агрессивная среда. Дороги: Мы проводим в многокилометровых заторах по нескольку часов ежедневно. А в год набегает (только подумайте!) больше десятка дней изнурительного стояния в прбках. Эта агрессивная среда незаметно стала привычной, но от того - не менее агрессивной.
12. Агрессивная среда. Экстремальное выживание: Казалось бы, сегодня не то что в каменном веке, и бороться за выживание не стоит. Ан нет - даже комфортный 21-ый век может быть по-настоящему агрессивной средой. Одни испытания продиктованы как раз технологическим прогрессом, другие, напротив, мы придумываем себе сами в попытке заполучить недостающий адреналин. Мы задались целью посмотреть и наглядно продемонстрировать, как работает человеческий организм в условиях экстремального выживания, и какие технологии позволяют сделать эти испытания безопаснее. Для этого мы подвергли проверке... самих себя! Команда программы "Агрессивная Среда" в качестве подопытных!
13. Агрессивная среда. Аллергия: По одним данным, это самое распространенное хроническое заболевание в мире, по другим - вот-вот им станет. Несмотря на то, что болезнью аллергия признана всего чуть больше века назад, сейчас от нее страдает каждый пятый житель земли, и количество заболевших, по подсчетам ученых, удваивается каждое десятилетие.
14-15. Агрессивная среда. Разрушительная погода - Фильм 1-2: Умеем ли мы управлять погодой? Съемочная группа программы попытается понять, что можно сделать с разрушительной погодой.
16. Агрессивная среда. Подземные опасности: Нередко геологи-исследователи подвергают свои жизни опасности, спускаясь в древние пещеры. Сложно представить, какие чувства человек испытывает в тот момент, когда опускается на 400 метров под землю. Вместе со съемочной группой вам предстоит совершить опасное путешествие в агрессивную среду.
17. Агрессивная среда. Бактерии: Они составляют абсолютное большинство от количества и разнообразия жизни на планете. Те, кто думает, что это они обитают рядом с нами - ошибаются. Это мы живем в их мире - в царстве бактерий.
18. Агрессивная среда. Кислоты: Всем известно, что кислоты – агрессивная среда, опасная для человека. Но так ли это в действительности? Автор программы Александра Говорченко попытается разобраться в вопросе.
19. Агрессивная среда. Скорость: Современный мир становится все быстрее. Скорость - необходимость, а ускорение - залог успеха. Но борьба за скорость нелегка! Чего стоит каждый километр на гоночном треке, а чего - на водной глади? Какой самый скоростной игровой вид спорта? Вы будете удивлены! И какую скорость всем нам хочется замедлить?
20. Агрессивная среда. Давление: Какое давление не выдерживают модели подлодок? Как с правиться с пробоиной на глубине? А вы чувствуете не себе давление воздуха? И чем грозит отсутствие давления?
Код: Выделить всё
General
ID                                       : 1 (0x1)
Complete name                            : 11. Агрессивная среда. Дороги.ts
Format                                   : MPEG-TS
File size                                : 2.47 GiB
Duration                                 : 45mn 58s
Overall bit rate mode                    : Variable
Overall bit rate                         : 7 692 Kbps

Video
ID                                       : 69 (0x45)
Menu ID                                  : 1 (0x1)
Format                                   : AVC
Format/Info                              : Advanced Video Codec
Format profile                           : High@L4.0
Format settings, CABAC                   : Yes
Format settings, ReFrames                : 4 frames
Codec ID                                 : 27
Duration                                 : 45mn 58s
Bit rate                                 : 7 118 Kbps
Width                                    : 1 920 pixels
Height                                   : 1 080 pixels
Display aspect ratio                     : 16:9
Frame rate                               : 25.000 fps
Color space                              : YUV
Chroma subsampling                       : 4:2:0
Bit depth                                : 8 bits
Scan type                                : MBAFF
Bits/(Pixel*Frame)                       : 0.137
Stream size                              : 2.29 GiB (93%)

Audio
ID                                       : 68 (0x44)
Menu ID                                  : 1 (0x1)
Format                                   : MPEG Audio
Format version                           : Version 1
Format profile                           : Layer 2
Mode                                     : Joint stereo
Mode extension                           : Intensity Stereo + MS Stereo
Codec ID                                 : 3
Duration                                 : 45mn 58s
Bit rate mode                            : Constant
Bit rate                                 : 192 Kbps
Channel(s)                               : 2 channels
Sampling rate                            : 48.0 KHz
Compression mode                         : Lossy
Stream size                              : 63.1 MiB (2%)
Language                                 : English
 
Не забывайте говорить Спасибо. Не уходите с раздачи!   
Торрент: Зарегистрирован [11 июл 2016, 14:24] Для скачивания .torrent
необходима регистрация
Или скачать с помощью
MediaGet
Статус:
Проверен
 
.torrent скачан: 0 раз
Хэш: a07cf3e2455401816411ef7127b05dcd34d330a7
Размер: 22.85 ГБ (24 537 670 136 байт)
Стать Автором раздачи
 
 
Раздал: 100 ГБ
Скачал: 0 байт
Ратио: Seed.
Сообщения: 188762
Зарегистрирован: 09 апр 2015, 20:00


  • Похожие торренты
    Ответы
    Просмотры
    Последнее сообщение

Вернуться в Естествознание, наука и техника (HD Video)

Ресурс не предоставляет электронные версии произведений, а занимается лишь коллекционированием и каталогизацией ссылок, присылаемых и публикуемых на форуме нашими читателями. Если вы являетесь правообладателем какого-либо представленного материала и не желаете чтобы ссылка на него находилась в нашем каталоге, свяжитесь с нами и мы незамедлительно удалим её. Файлы для обмена на трекере предоставлены пользователями сайта, и администрация не несёт ответственности за их содержание. Просьба не заливать файлы, защищенные авторскими правами, а также файлы нелегального содержания!
cron