Кто кого спасает? / Who saves whom? (2016) HDTVRip [H.264] [MP4|1280x720]

 
 Статистика раздачи 
Размер: 806.53 МБ   |  Зарегистрирован: 09 июл 2016, 23:06   |   .torrent скачан: 0 раз
Сидеров: 1  [ 0 байт/сек ]     Личеров: 0  [ 0 байт/сек ]  
  

Кто кого спасает? / Who saves whom? (2016) HDTVRip [H.264] [MP4|1280x720]

Сообщение explosiveone » 09 июл 2016, 23:06

Кто кого спасает? / Who saves whom? (2016) HDTVRip [H.264] [MP4|1280x720]

Платформа или формат: [MP4|1280x720]
Производство: RTД
Жанр: Документальный

Описание:
«Рынок лучше знает, что ему нужно», — утверждают западные экономисты. Но сегодня мы видим, как владельцы крупнейших банков и транснациональных компаний активно обогащаются, используя различные финансовые схемы, в то время как мир сотрясают грандиозные кризисы. И это называют оптимальной товарно-денежной системой? Под предлогом спасения национальных экономик международные финансовые структуры выкачивают из них все соки, обрекая миллионы людей на нищенское существование. И это называют рыночными механизмами? В фильме «Кто кого спасает?» вы увидите, к чему приводят бесконтрольные действия мировой бизнес-элиты.

Возраст: 16+ (зрителям, достигшим 16 лет)
Рейтинг MPAA: PG-13 (детям до 13 лет просмотр нежелателен)
Дата мировой премьеры: 24.02.2016
Дата российской премьеры: 24.02.2016

Продолжительность: 00:52:21
Качество видео: HDTVRip

Видео: AVC/H.264, 1280x720, ~1959 Kbps
Аудио: AAC, 2 ch, 192 Kbps, VBR
Код:
Код: Выделить всё
Общее
Полное имя                               : E:\Who_saves_whom[NNMClub].mp4
Формат                                   : MPEG-4
Профиль формата                          : Base Media / Version 2
Идентификатор кодека                     : mp42 (isom/mp42)
Размер файла                             : 807 Мбайт
Продолжительность                        : 52 м.
Режим общего битрейта                    : Переменный
Общий поток                              : 2153 Кбит/сек

Видео
Идентификатор                            : 1
Формат                                   : AVC
Формат/Информация                        : Advanced Video Codec
Профиль формата                          :
Параметр CABAC формата                   : Да
Параметр ReFrames формата                : 1 кадр
Идентификатор кодека                     : avc1
Идентификатор кодека/Информация          : Advanced Video Coding
Продолжительность                        : 52 м.
Битрейт                                  : 1959 Кбит/сек
Максимальный битрейт                     : 7600 Кбит/сек
Ширина                                   : 1280 пикселей
Высота                                   : 720 пикселей
Соотношение сторон                       : 16:9
Режим частоты кадров                     : Постоянный
Частота кадров                           : 25,000 кадров/сек
Цветовое пространство                    : YUV
Субдискретизация насыщенности            : 4:2:0
Битовая глубина                          : 8 бит
Тип развёртки                            : Прогрессивная
Бит/(Пиксели*Кадры)                      : 0.085
Размер потока                            : 734 Мбайт (91%)
Дата пометки                             : UTC 2016-02-23 16:26:12
Цветовой диапазон                        : Limited
Основные цвета                           : BT.709
Характеристики трансфера                 : BT.709
Коэффициенты матрицы                     : BT.709

Аудио
Идентификатор                            : 2
Формат                                   : AAC
Формат/Информация                        : Advanced Audio Codec
Профиль формата                          : LC
Идентификатор кодека                     : 40
Продолжительность                        : 52 м.
Вид битрейта                             : Переменный
Битрейт                                  : 192 Кбит/сек
Максимальный битрейт                     : 201 Кбит/сек
Каналы                                   : 2 канала
Расположение каналов                     : Front: L R
Частота                                  : 44,1 КГц
Частота кадров                           : 43,066 кадра/сек (1024 spf)
Метод сжатия                             : С потерями
Размер потока                            : 71,9 Мбайт (9%)
Заголовок                                : IsoMedia File Produced by Google, 5-11-2011
Язык                                     : English

Скриншоты:


Время раздачи: 24/7 (до появления первых 3-5 скачавших)
 
Не забывайте говорить Спасибо. Не уходите с раздачи!   
Торрент: Зарегистрирован [09 июл 2016, 23:06] Для скачивания .torrent
необходима регистрация
Или скачать с помощью
MediaGet
Статус:
Проверен
 
.torrent скачан: 0 раз
Хэш: 0d18ec034639eb7de98f9590c0e5db96864c9f31
Размер: 806.53 МБ (845 703 177 байт)
Стать Автором раздачи
 
 
Раздал: 100 ГБ
Скачал: 0 байт
Ратио: Seed.
Сообщения: 94048
Зарегистрирован: 09 апр 2015, 22:31


  • Похожие торренты
    Ответы
    Просмотры
    Последнее сообщение

Вернуться в Видео для мобильных устройств

Ресурс не предоставляет электронные версии произведений, а занимается лишь коллекционированием и каталогизацией ссылок, присылаемых и публикуемых на форуме нашими читателями. Если вы являетесь правообладателем какого-либо представленного материала и не желаете чтобы ссылка на него находилась в нашем каталоге, свяжитесь с нами и мы незамедлительно удалим её. Файлы для обмена на трекере предоставлены пользователями сайта, и администрация не несёт ответственности за их содержание. Просьба не заливать файлы, защищенные авторскими правами, а также файлы нелегального содержания!
cron