Известная Вселенная. 2 сезон / Known Universe (2009) HDTVRip

 
 Статистика раздачи 
Размер: 5.01 ГБ   |  Зарегистрирован: 09 июл 2016, 20:50   |   .torrent скачан: 1 раз
Сидеров: 1  [ 0 байт/сек ]     Личеров: 0  [ 0 байт/сек ]  
  

Известная Вселенная. 2 сезон / Known Universe (2009) HDTVRip

Сообщение explosiveone » 09 июл 2016, 20:50

Известная Вселенная. 2 сезон (5 серий из 6) / Known Universe (2009) HDTVRip

Телекомпания: National Geographic
Жанр: Документальный

Участники: режиссер: В. Скотт Голди, Джон Колл Меткалф;
сценарий: Rob Blumenstein, Стюарт Чаит, Hal MacDermot;
продюсер: John Brenkus, Мики Штерн, Джон Колл Меткалф;
оператор: Nick Tramantano, Скотт Кэрритерс, Russell Fill;
композитор: Дэвид Лэбо, Jeff Faustman;
художник: Рикардо Андраде;
монтаж: Брайан Кинг, Кори Бекер, Katarina Ostic
.
.
.
.
.
.
.
.
.
.


Описание:


На протяжении тысяч лет, человечество спрашивает: мы такие одни разумные
что создала природа? Есть ли где-то далеко за пределами нашей планеты миры или сферы, в которых есть существа подобного рода?

Кратера израненной поверхности Луны или Меркурия показывают красноречивое свидетельство того что столкновения во Вселенной стали обычным явлением. Наша Вселенная повернула время вспять и показывает, как миллиарды лет назад создала Землю и ее спутник.

Грозы на Земле, могут быть катастрофическими, подумайте о разрушительном нраве урагана "Катрина" в Новом Орлеане что было в 2005 году. Наша Вселенная управляет земными силами природы с более широкой точки зрения и показывает, как ещё более мощные силы природы развиваются на других планетах!

Незнание большинства вещей стимулирует нашу жажду познаний. Импульс заставляющий нас исследовать окружающий мир заводит нас за пределы недавно фантастических вещей. Многие вопросы ждут своих ответов.

В сотнях световых годах от нас яростные стихии космоса взрывают сверхновые и вращают чёрные дыры, поглощая всё вокруг себя. На Земле же происходят похожие процессы, но ими управляют земные стихии.

Каково место человека во Вселенной? Есть ли связь между нами и звездами? Правда ли что человек появился не на Земле? На протяжении тысячелетий человек собирал знания о звёздах и планете, на которой он живёт, пытаясь объять необъятное и узнать неизведанное.


Продолжительность: 6 x 00:47:00
Качество видео: HDTVRip
Перевод: Одноголосый закадровый, профессиональный

Видео: AVC/H.264, 1280x720, ~2900Kbps
Аудио: AC3, 2 ch, 192 Kbps
Скриншоты:



Время раздачи: с 07:00 до 23:00 (до появления первых 3-5 скачавших)
Код:
Код: Выделить всё
Общее
Уникальный идентификатор                 : 217266498523113383857562172799966086502 (0xA374016B2FB06958BE838798D4818566)
Полное имя                               : G:\__KOCMOC\Unser Universum\Unser Universum S02E01 Sind wir allein im All.mkv
Формат                                   : Matroska
Версия формата                           : Version 1
Размер файла                             : 1,01 Гбайт
Продолжительность                        : 46 м.
Общий поток                              : 3091 Кбит/сек
Дата кодирования                         : UTC 2010-05-10 14:14:18
Программа кодирования                    : mkvmerge v2.2.0 ('Turn It On Again') built on Mar  4 2008 12:58:26
Библиотека кодирования                   : libebml v0.7.7 + libmatroska v0.8.1

Видео
Идентификатор                            : 1
Формат                                   : AVC
Формат/Информация                        : Advanced Video Codec
Профиль формата                          :
Параметр CABAC формата                   : Да
Параметр ReFrames формата                : 5 кадров
Идентификатор кодека                     : V_MPEG4/ISO/AVC
Продолжительность                        : 46 м.
Битрейт                                  : 2896 Кбит/сек
Ширина                                   : 1280 пикселей
Высота                                   : 720 пикселей
Соотношение сторон                       : 16:9
Режим частоты кадров                     : Постоянный
Частота кадров                           : 25,000 кадров/сек
Цветовое пространство                    : YUV
Субдискретизация насыщенности            : 4:2:0
Битовая глубина                          : 8 бит
Тип развёртки                            : Прогрессивная
Бит/(Пиксели*Кадры)                      : 0.126
Размер потока                            : 950 Мбайт (92%)
Библиотека кодирования                   : x264 core 68 r1181M 49bf767
Настройки программы                      : cabac=1 / ref=5 / deblock=1:0:0 / analyse=0x3:0x113 / me=umh / subme=7 / psy_rd=1.0:0.0 / mixed_ref=1 / me_range=12 / chroma_me=1 / trellis=1 / 8x8dct=1 / cqm=0 / deadzone=21,11 / chroma_qp_offset=-2 / threads=4 / nr=0 / decimate=1 / mbaff=0 / bframes=3 / b_pyramid=1 / b_adapt=1 / b_bias=0 / direct=3 / wpredb=1 / keyint=250 / keyint_min=25 / scenecut=40 / rc=2pass / bitrate=2896 / ratetol=1.0 / qcomp=0.60 / qpmin=10 / qpmax=51 / qpstep=4 / cplxblur=20.0 / qblur=0.5 / ip_ratio=1.40 / pb_ratio=1.30 / aq=1:1.00
Default                                  : Да
Forced                                   : Нет

Аудио
Идентификатор                            : 2
Формат                                   : AC-3
Формат/Информация                        : Audio Coding 3
Расширение режима                        : CM (complete main)
Параметр Endianness формата              : Big
Идентификатор кодека                     : A_AC3
Продолжительность                        : 46 м.
Вид битрейта                             : Постоянный
Битрейт                                  : 192 Кбит/сек
Каналы                                   : 2 канала
Расположение каналов                     : Front: L R
Частота                                  : 48,0 КГц
Частота кадров                           : 31,250 кадров/сек (1536 spf)
Метод сжатия                             : С потерями
Размер потока                            : 64,3 Мбайт (6%)
Default                                  : Да
Forced                                   : Нет

Общее
Уникальный идентификатор                 : 231545577547550183822807734985412809603 (0xAE320E5E771F21EDB125615E0BA79383)
Полное имя                               : G:\__KOCMOC\Unser Universum\Unser Universum S02E02 Auf Kollisionskurs im All.mkv
Формат                                   : Matroska
Версия формата                           : Version 1
Размер файла                             : 1013 Мбайт
Продолжительность                        : 47 м.
Общий поток                              : 3011 Кбит/сек
Дата кодирования                         : UTC 2010-05-12 03:52:41
Программа кодирования                    : mkvmerge v2.2.0 ('Turn It On Again') built on Mar  4 2008 12:58:26
Библиотека кодирования                   : libebml v0.7.7 + libmatroska v0.8.1

Видео
Идентификатор                            : 1
Формат                                   : AVC
Формат/Информация                        : Advanced Video Codec
Профиль формата                          :
Параметр CABAC формата                   : Да
Параметр ReFrames формата                : 5 кадров
Идентификатор кодека                     : V_MPEG4/ISO/AVC
Продолжительность                        : 47 м.
Битрейт                                  : 2881 Кбит/сек
Ширина                                   : 1280 пикселей
Высота                                   : 720 пикселей
Соотношение сторон                       : 16:9
Режим частоты кадров                     : Постоянный
Частота кадров                           : 25,000 кадров/сек
Цветовое пространство                    : YUV
Субдискретизация насыщенности            : 4:2:0
Битовая глубина                          : 8 бит
Тип развёртки                            : Прогрессивная
Бит/(Пиксели*Кадры)                      : 0.125
Размер потока                            : 950 Мбайт (94%)
Библиотека кодирования                   : x264 core 80 r1376M 3feaec2
Настройки программы                      : cabac=1 / ref=5 / deblock=1:0:0 / analyse=0x3:0x113 / me=umh / subme=6 / psy=1 / psy_rd=1.0:0.0 / mixed_ref=1 / me_range=12 / chroma_me=1 / trellis=1 / 8x8dct=1 / cqm=0 / deadzone=21,11 / fast_pskip=1 / chroma_qp_offset=-2 / threads=4 / sliced_threads=0 / nr=0 / decimate=1 / mbaff=0 / constrained_intra=0 / bframes=3 / b_pyramid=0 / b_adapt=1 / b_bias=0 / direct=3 / wpredb=1 / wpredp=2 / keyint=250 / keyint_min=25 / scenecut=40 / rc_lookahead=40 / rc=2pass / mbtree=1 / bitrate=2881 / ratetol=1.0 / qcomp=0.60 / qpmin=10 / qpmax=51 / qpstep=4 / cplxblur=20.0 / qblur=0.5 / ip_ratio=1.40 / aq=1:1.00
Default                                  : Да
Forced                                   : Нет

Аудио
Идентификатор                            : 2
Формат                                   : MPEG Audio
Версия формата                           : Version 1
Профиль формата                          : Layer 3
Режим                                    : Joint stereo
Расширение режима                        : MS Stereo
Идентификатор кодека                     : A_MPEG/L3
Идентификатор кодека/Подсказка           : MP3
Продолжительность                        : 47 м.
Вид битрейта                             : Постоянный
Битрейт                                  : 128 Кбит/сек
Каналы                                   : 2 канала
Частота                                  : 48,0 КГц
Метод сжатия                             : С потерями
Размер потока                            : 43,1 Мбайт (4%)
Default                                  : Да
Forced                                   : Нет

Общее
Уникальный идентификатор                 : 173988598082037582373931440731993449786 (0x82E4FC2FB2B662298CFEB3784140A53A)
Полное имя                               : G:\__KOCMOC\Unser Universum\Unser Universum S02E04 Die grossen Raetsel des All.mkv
Формат                                   : Matroska
Версия формата                           : Version 1
Размер файла                             : 1013 Мбайт
Продолжительность                        : 46 м.
Общий поток                              : 3015 Кбит/сек
Дата кодирования                         : UTC 2010-05-11 11:09:55
Программа кодирования                    : mkvmerge v2.2.0 ('Turn It On Again') built on Mar  4 2008 12:58:26
Библиотека кодирования                   : libebml v0.7.7 + libmatroska v0.8.1

Видео
Идентификатор                            : 1
Формат                                   : AVC
Формат/Информация                        : Advanced Video Codec
Профиль формата                          :
Параметр CABAC формата                   : Да
Параметр ReFrames формата                : 5 кадров
Идентификатор кодека                     : V_MPEG4/ISO/AVC
Продолжительность                        : 46 м.
Битрейт                                  : 2886 Кбит/сек
Ширина                                   : 1280 пикселей
Высота                                   : 720 пикселей
Соотношение сторон                       : 16:9
Режим частоты кадров                     : Постоянный
Частота кадров                           : 25,000 кадров/сек
Цветовое пространство                    : YUV
Субдискретизация насыщенности            : 4:2:0
Битовая глубина                          : 8 бит
Тип развёртки                            : Прогрессивная
Бит/(Пиксели*Кадры)                      : 0.125
Размер потока                            : 950 Мбайт (94%)
Библиотека кодирования                   : x264 core 80 r1376M 3feaec2
Настройки программы                      : cabac=1 / ref=5 / deblock=1:0:0 / analyse=0x3:0x113 / me=umh / subme=6 / psy=1 / psy_rd=0.8:0.2 / mixed_ref=0 / me_range=16 / chroma_me=1 / trellis=1 / 8x8dct=1 / cqm=0 / deadzone=21,11 / fast_pskip=0 / chroma_qp_offset=-3 / threads=3 / sliced_threads=0 / nr=0 / decimate=1 / mbaff=0 / constrained_intra=0 / bframes=3 / b_pyramid=0 / b_adapt=1 / b_bias=0 / direct=3 / wpredb=1 / wpredp=2 / keyint=250 / keyint_min=25 / scenecut=40 / rc=2pass / mbtree=0 / bitrate=2886 / ratetol=1.0 / qcomp=0.60 / qpmin=1 / qpmax=51 / qpstep=4 / cplxblur=20.0 / qblur=0.5 / ip_ratio=1.40 / pb_ratio=1.30 / aq=0
Default                                  : Да
Forced                                   : Нет

Аудио
Идентификатор                            : 2
Формат                                   : MPEG Audio
Версия формата                           : Version 1
Профиль формата                          : Layer 3
Режим                                    : Joint stereo
Расширение режима                        : MS Stereo
Идентификатор кодека                     : A_MPEG/L3
Идентификатор кодека/Подсказка           : MP3
Продолжительность                        : 46 м.
Вид битрейта                             : Постоянный
Битрейт                                  : 128 Кбит/сек
Каналы                                   : 2 канала
Частота                                  : 48,0 КГц
Метод сжатия                             : С потерями
Размер потока                            : 43,0 Мбайт (4%)
Библиотека кодирования                   : LAME3.98r
Настройки программы                      : -m j -V 4 -q 2 -lowpass 17 -b 128
Default                                  : Да
Forced                                   : Нет

Общее
Уникальный идентификатор                 : 229350220558805481041959592755290941075 (0xAC8B3EE9A47CB810A77C0E5BEACBA693)
Полное имя                               : G:\__KOCMOC\Unser Universum\Unser Universum S02E05 Urgewalten der Erde.mkv
Формат                                   : Matroska
Версия формата                           : Version 1
Размер файла                             : 1,01 Гбайт
Продолжительность                        : 47 м.
Общий поток                              : 3077 Кбит/сек
Дата кодирования                         : UTC 2010-05-10 08:48:37
Программа кодирования                    : mkvmerge v2.2.0 ('Turn It On Again') built on Mar  4 2008 12:58:26
Библиотека кодирования                   : libebml v0.7.7 + libmatroska v0.8.1

Видео
Идентификатор                            : 1
Формат                                   : AVC
Формат/Информация                        : Advanced Video Codec
Профиль формата                          :
Параметр CABAC формата                   : Да
Параметр ReFrames формата                : 5 кадров
Идентификатор кодека                     : V_MPEG4/ISO/AVC
Продолжительность                        : 47 м.
Битрейт                                  : 2883 Кбит/сек
Ширина                                   : 1280 пикселей
Высота                                   : 720 пикселей
Соотношение сторон                       : 16:9
Режим частоты кадров                     : Постоянный
Частота кадров                           : 25,000 кадров/сек
Цветовое пространство                    : YUV
Субдискретизация насыщенности            : 4:2:0
Битовая глубина                          : 8 бит
Тип развёртки                            : Прогрессивная
Бит/(Пиксели*Кадры)                      : 0.125
Размер потока                            : 950 Мбайт (92%)
Библиотека кодирования                   : x264 core 80 r1376M 3feaec2
Настройки программы                      : cabac=1 / ref=5 / deblock=1:0:0 / analyse=0x3:0x113 / me=umh / subme=6 / psy=1 / psy_rd=0.8:0.2 / mixed_ref=0 / me_range=16 / chroma_me=1 / trellis=1 / 8x8dct=1 / cqm=0 / deadzone=21,11 / fast_pskip=0 / chroma_qp_offset=-3 / threads=3 / sliced_threads=0 / nr=0 / decimate=1 / mbaff=0 / constrained_intra=0 / bframes=3 / b_pyramid=0 / b_adapt=1 / b_bias=0 / direct=3 / wpredb=1 / wpredp=2 / keyint=250 / keyint_min=25 / scenecut=40 / rc=2pass / mbtree=0 / bitrate=2883 / ratetol=1.0 / qcomp=0.60 / qpmin=1 / qpmax=51 / qpstep=4 / cplxblur=20.0 / qblur=0.5 / ip_ratio=1.40 / pb_ratio=1.30 / aq=0
Default                                  : Да
Forced                                   : Нет

Аудио
Идентификатор                            : 2
Формат                                   : AC-3
Формат/Информация                        : Audio Coding 3
Расширение режима                        : CM (complete main)
Параметр Endianness формата              : Big
Идентификатор кодека                     : A_AC3
Продолжительность                        : 47 м.
Вид битрейта                             : Постоянный
Битрейт                                  : 192 Кбит/сек
Каналы                                   : 2 канала
Расположение каналов                     : Front: L R
Частота                                  : 48,0 КГц
Частота кадров                           : 31,250 кадров/сек (1536 spf)
Метод сжатия                             : С потерями
Размер потока                            : 64,6 Мбайт (6%)
Default                                  : Да
Forced                                   : Нет

Общее
Уникальный идентификатор                 : 191791880559362537150866299243188868180 (0x9049C5C8318E9FA2A141E2FCB7AE5454)
Полное имя                               : G:\__KOCMOC\Unser Universum\Unser Universum S02E06 Stargates.mkv
Формат                                   : Matroska
Версия формата                           : Version 1
Размер файла                             : 1,01 Гбайт
Продолжительность                        : 47 м.
Общий поток                              : 3077 Кбит/сек
Дата кодирования                         : UTC 2010-05-10 06:36:42
Программа кодирования                    : mkvmerge v2.2.0 ('Turn It On Again') built on Mar  4 2008 12:58:26
Библиотека кодирования                   : libebml v0.7.7 + libmatroska v0.8.1

Видео
Идентификатор                            : 1
Формат                                   : AVC
Формат/Информация                        : Advanced Video Codec
Профиль формата                          :
Параметр CABAC формата                   : Да
Параметр ReFrames формата                : 5 кадров
Идентификатор кодека                     : V_MPEG4/ISO/AVC
Продолжительность                        : 47 м.
Битрейт                                  : 2883 Кбит/сек
Ширина                                   : 1280 пикселей
Высота                                   : 720 пикселей
Соотношение сторон                       : 16:9
Режим частоты кадров                     : Постоянный
Частота кадров                           : 25,000 кадров/сек
Цветовое пространство                    : YUV
Субдискретизация насыщенности            : 4:2:0
Битовая глубина                          : 8 бит
Тип развёртки                            : Прогрессивная
Бит/(Пиксели*Кадры)                      : 0.125
Размер потока                            : 950 Мбайт (92%)
Библиотека кодирования                   : x264 core 80 r1376M 3feaec2
Настройки программы                      : cabac=1 / ref=5 / deblock=1:0:0 / analyse=0x3:0x113 / me=umh / subme=6 / psy=1 / psy_rd=1.0:0.0 / mixed_ref=1 / me_range=12 / chroma_me=1 / trellis=1 / 8x8dct=1 / cqm=0 / deadzone=21,11 / fast_pskip=1 / chroma_qp_offset=-2 / threads=3 / sliced_threads=0 / nr=0 / decimate=1 / mbaff=0 / constrained_intra=0 / bframes=3 / b_pyramid=0 / b_adapt=1 / b_bias=0 / direct=3 / wpredb=1 / wpredp=2 / keyint=250 / keyint_min=25 / scenecut=40 / rc_lookahead=40 / rc=2pass / mbtree=1 / bitrate=2883 / ratetol=1.0 / qcomp=0.60 / qpmin=10 / qpmax=51 / qpstep=4 / cplxblur=20.0 / qblur=0.5 / ip_ratio=1.40 / aq=1:1.00
Default                                  : Да
Forced                                   : Нет

Аудио
Идентификатор                            : 2
Формат                                   : AC-3
Формат/Информация                        : Audio Coding 3
Расширение режима                        : CM (complete main)
Параметр Endianness формата              : Big
Идентификатор кодека                     : A_AC3
Продолжительность                        : 47 м.
Вид битрейта                             : Постоянный
Битрейт                                  : 192 Кбит/сек
Каналы                                   : 2 канала
Расположение каналов                     : Front: L R
Частота                                  : 48,0 КГц
Частота кадров                           : 31,250 кадров/сек (1536 spf)
Метод сжатия                             : С потерями
Размер потока                            : 64,6 Мбайт (6%)
Default                                  : Да
Forced                                   : Нет
 
Не забывайте говорить Спасибо. Не уходите с раздачи!   
Торрент: Зарегистрирован [09 июл 2016, 20:50] Для скачивания .torrent
необходима регистрация
Или скачать с помощью
MediaGet
Статус:
Проверен
 
.torrent скачан: 1 раз
Хэш: 1193f1c240f2c822c2ee0d68af2188aaab6e504a
Размер: 5.01 ГБ (5 380 228 811 байт)
Стать Автором раздачи
 
 
Раздал: 100 ГБ
Скачал: 0 байт
Ратио: Seed.
Сообщения: 82658
Зарегистрирован: 09 апр 2015, 22:31


  • Похожие торренты
    Ответы
    Просмотры
    Последнее сообщение

Вернуться в Космос (видео)

Кто сейчас на конференции

Сейчас эту тему просматривают: нет зарегистрированных пользователей и гости: 1

Ресурс не предоставляет электронные версии произведений, а занимается лишь коллекционированием и каталогизацией ссылок, присылаемых и публикуемых на форуме нашими читателями. Если вы являетесь правообладателем какого-либо представленного материала и не желаете чтобы ссылка на него находилась в нашем каталоге, свяжитесь с нами и мы незамедлительно удалим её. Файлы для обмена на трекере предоставлены пользователями сайта, и администрация не несёт ответственности за их содержание. Просьба не заливать файлы, защищенные авторскими правами, а также файлы нелегального содержания!