Извеcтная Вселенная. Сезон 1 / Known Universe, Unser Universum (2008) BDRip

 
 Статистика раздачи 
Размер: 4.87 ГБ   |  Зарегистрирован: 09 июл 2016, 20:45   |   .torrent скачан: 1 раз
Сидеров: 1  [ 0 байт/сек ]     Личеров: 0  [ 0 байт/сек ]  
  

Извеcтная Вселенная. Сезон 1 / Known Universe, Unser Universum (2008) BDRip

Сообщение explosiveone » 09 июл 2016, 20:45

Извеcтная Вселенная. Сезон 1 (3 серии из 3) / Known Universe, Unser Universum (2008) BDRip

Телекомпания: National Geographic
Жанр: Документальный
Участники: режиссер: В. Скотт Голди, Джон Колл Меткалф; сценарий: Rob Blumenstein, Стюарт Чаит, Hal MacDermot; продюсер: John Brenkus, Мики Штерн, Джон Колл Меткалф; оператор: Nick Tramantano, Скотт Кэрритерс, Russell Fill; композитор: Дэвид Лэбо, Jeff Faustman; художник: Рикардо Андраде; монтаж: Брайан Кинг, Кори Бекер, Katarina Ostic

Описание:

1 серия
С космической скоростью
В обширном пространстве космоса ничто не имеет большего значения чем скорость.
Решитесь ли вы полететь к дальним пределам нашей Солнечной системы или исследовать тайны путешествия во времени и червоточин, скорость будет являться ключом!
2 серия
От атома до космоса
В огромной вселенной, в которой мы существуем, крошечные атомы составляют строительные блоки всего вокруг нас.
Размер имеет значение, когда речь заходит о понимании космоса.
Начиная с нашей Солнечной системы, мы рассмотрим истинное значение слова "большой".
3 серия
Взрывоопасный Космос
Несмотря на видимый покой, космос обладает огромной разрушительной энергией.
Мы исследуем тёмные силы, движущие космическими бурями и взрывами.



Продолжительность: 3 x 00:46:57
Качество видео: BDRip
Перевод: Одноголосый закадровый, профессиональный

Видео: AVC/H.264, 1280х720, ~4500kbps
Аудио: AC3, 6 ch, 448 kbps 48khz
Скриншоты:



Время раздачи: с 07:00 до 23:00 (до появления первых 3-5 скачавших)
Код:
Код: Выделить всё
Общее
Уникальный идентификатор                 : 211778427232905572211803754502373341294 (0x9F530A9D02FFA1039500A633AE81786E)
Полное имя                               : G:\__KOCMOC\Unser Universum Staffel 1\S01E01-The Fastest.mkv
Формат                                   : Matroska
Версия формата                           : Version 2
Размер файла                             : 1,63 Гбайт
Продолжительность                        : 46 м.
Общий поток                              : 4954 Кбит/сек
Дата кодирования                         : UTC 2010-08-19 04:13:30
Программа кодирования                    : mkvmerge v3.0.0 ('Hang up your Hang-Ups') built on Dec 15 2009 20:49:37
Библиотека кодирования                   : libebml v0.7.9 + libmatroska v0.8.1

Видео
Идентификатор                            : 1
Формат                                   : AVC
Формат/Информация                        : Advanced Video Codec
Профиль формата                          :
Параметр CABAC формата                   : Да
Параметр ReFrames формата                : 3 кадра
Идентификатор кодека                     : V_MPEG4/ISO/AVC
Продолжительность                        : 46 м.
Битрейт                                  : 4500 Кбит/сек
Ширина                                   : 1280 пикселей
Высота                                   : 720 пикселей
Соотношение сторон                       : 16:9
Режим частоты кадров                     : Постоянный
Частота кадров                           : 25,000 кадров/сек
Цветовое пространство                    : YUV
Субдискретизация насыщенности            : 4:2:0
Битовая глубина                          : 8 бит
Тип развёртки                            : Прогрессивная
Бит/(Пиксели*Кадры)                      : 0.195
Размер потока                            : 1,45 Гбайт (89%)
Библиотека кодирования                   : x264 core 79 r1342kMod e8501ef
Настройки программы                      : cabac=1 / ref=3 / deblock=0:0:0 / analyse=0x3:0x113 / me=hex / subme=7 / psy=1 / psy_rd=1.0:0.0 / mixed_ref=1 / me_range=16 / chroma_me=1 / trellis=1 / 8x8dct=1 / cqm=0 / deadzone=21,11 / chroma_qp_offset=-2 / threads=3 / nr=0 / decimate=1 / mbaff=0 / constrained_intra=0 / bframes=3 / b_pyramid=0 / b_adapt=1 / b_bias=0 / direct=1 / wpredb=1 / wpredp=2 / keyint=250 / keyint_min=25 / scenecut=40 / rc_lookahead=40 / rc=abr / mbtree=1 / bitrate=4500 / ratetol=1.0 / qcomp=0.60 / qpmin=10 / qpmax=51 / qpstep=4 / ip_ratio=1.40 / aq=1:1.00
Default                                  : Да
Forced                                   : Нет

Аудио
Идентификатор                            : 2
Формат                                   : AC-3
Формат/Информация                        : Audio Coding 3
Расширение режима                        : CM (complete main)
Параметр Endianness формата              : Big
Идентификатор кодека                     : A_AC3
Продолжительность                        : 46 м.
Вид битрейта                             : Постоянный
Битрейт                                  : 448 Кбит/сек
Каналы                                   : 6 каналов
Расположение каналов                     : Front: L C R, Side: L R, LFE
Частота                                  : 48,0 КГц
Частота кадров                           : 31,250 кадров/сек (1536 spf)
Метод сжатия                             : С потерями
Размер потока                            : 151 Мбайт (9%)
Язык                                     : Russian
Default                                  : Да
Forced                                   : Да

Общее
Уникальный идентификатор                 : 252117175145788876936050340507969527894 (0xBDAC00701DC89B8C82D2BAC56C762056)
Полное имя                               : G:\__KOCMOC\Unser Universum Staffel 1\S01E02-The Biggest and Smallest.mkv
Формат                                   : Matroska
Версия формата                           : Version 2
Размер файла                             : 1,62 Гбайт
Продолжительность                        : 46 м.
Общий поток                              : 4946 Кбит/сек
Дата кодирования                         : UTC 2010-08-05 20:55:59
Программа кодирования                    : mkvmerge v3.0.0 ('Hang up your Hang-Ups') built on Dec 15 2009 20:49:37
Библиотека кодирования                   : libebml v0.7.9 + libmatroska v0.8.1

Видео
Идентификатор                            : 1
Формат                                   : AVC
Формат/Информация                        : Advanced Video Codec
Профиль формата                          :
Параметр CABAC формата                   : Да
Параметр ReFrames формата                : 3 кадра
Идентификатор кодека                     : V_MPEG4/ISO/AVC
Продолжительность                        : 46 м.
Битрейт                                  : 4500 Кбит/сек
Ширина                                   : 1280 пикселей
Высота                                   : 720 пикселей
Соотношение сторон                       : 16:9
Режим частоты кадров                     : Постоянный
Частота кадров                           : 25,000 кадров/сек
Цветовое пространство                    : YUV
Субдискретизация насыщенности            : 4:2:0
Битовая глубина                          : 8 бит
Тип развёртки                            : Прогрессивная
Бит/(Пиксели*Кадры)                      : 0.195
Размер потока                            : 1,44 Гбайт (89%)
Библиотека кодирования                   : x264 core 79 r1342kMod e8501ef
Настройки программы                      : cabac=1 / ref=3 / deblock=0:0:0 / analyse=0x3:0x113 / me=hex / subme=7 / psy=1 / psy_rd=1.0:0.0 / mixed_ref=1 / me_range=16 / chroma_me=1 / trellis=1 / 8x8dct=1 / cqm=0 / deadzone=21,11 / chroma_qp_offset=-2 / threads=3 / nr=0 / decimate=1 / mbaff=0 / constrained_intra=0 / bframes=3 / b_pyramid=0 / b_adapt=1 / b_bias=0 / direct=1 / wpredb=1 / wpredp=2 / keyint=250 / keyint_min=25 / scenecut=40 / rc_lookahead=40 / rc=abr / mbtree=1 / bitrate=4500 / ratetol=1.0 / qcomp=0.60 / qpmin=10 / qpmax=51 / qpstep=4 / ip_ratio=1.40 / aq=1:1.00
Default                                  : Да
Forced                                   : Нет

Аудио
Идентификатор                            : 2
Формат                                   : AC-3
Формат/Информация                        : Audio Coding 3
Расширение режима                        : CM (complete main)
Параметр Endianness формата              : Big
Идентификатор кодека                     : A_AC3
Продолжительность                        : 46 м.
Вид битрейта                             : Постоянный
Битрейт                                  : 448 Кбит/сек
Каналы                                   : 6 каналов
Расположение каналов                     : Front: L C R, Side: L R, LFE
Частота                                  : 48,0 КГц
Частота кадров                           : 31,250 кадров/сек (1536 spf)
Метод сжатия                             : С потерями
Размер потока                            : 150 Мбайт (9%)
Язык                                     : Russian
Default                                  : Да
Forced                                   : Да

Общее
Уникальный идентификатор                 : 206475812197390147963201875998953051973 (0x9B55CB81DC4515F282EAB1E717521745)
Полное имя                               : G:\__KOCMOC\Unser Universum Staffel 1\S01E03-The Most Explosive.mkv
Формат                                   : Matroska
Версия формата                           : Version 2
Размер файла                             : 1,62 Гбайт
Продолжительность                        : 46 м.
Общий поток                              : 4949 Кбит/сек
Дата кодирования                         : UTC 2010-08-10 16:02:00
Программа кодирования                    : mkvmerge v3.0.0 ('Hang up your Hang-Ups') built on Dec 15 2009 20:49:37
Библиотека кодирования                   : libebml v0.7.9 + libmatroska v0.8.1

Видео
Идентификатор                            : 1
Формат                                   : AVC
Формат/Информация                        : Advanced Video Codec
Профиль формата                          :
Параметр CABAC формата                   : Да
Параметр ReFrames формата                : 3 кадра
Идентификатор кодека                     : V_MPEG4/ISO/AVC
Продолжительность                        : 46 м.
Битрейт                                  : 4500 Кбит/сек
Ширина                                   : 1280 пикселей
Высота                                   : 720 пикселей
Соотношение сторон                       : 16:9
Режим частоты кадров                     : Постоянный
Частота кадров                           : 25,000 кадров/сек
Цветовое пространство                    : YUV
Субдискретизация насыщенности            : 4:2:0
Битовая глубина                          : 8 бит
Тип развёртки                            : Прогрессивная
Бит/(Пиксели*Кадры)                      : 0.195
Размер потока                            : 1,44 Гбайт (89%)
Библиотека кодирования                   : x264 core 79 r1342kMod e8501ef
Настройки программы                      : cabac=1 / ref=3 / deblock=0:0:0 / analyse=0x3:0x113 / me=hex / subme=7 / psy=1 / psy_rd=1.0:0.0 / mixed_ref=1 / me_range=16 / chroma_me=1 / trellis=1 / 8x8dct=1 / cqm=0 / deadzone=21,11 / chroma_qp_offset=-2 / threads=3 / nr=0 / decimate=1 / mbaff=0 / constrained_intra=0 / bframes=3 / b_pyramid=0 / b_adapt=1 / b_bias=0 / direct=1 / wpredb=1 / wpredp=2 / keyint=250 / keyint_min=25 / scenecut=40 / rc_lookahead=40 / rc=abr / mbtree=1 / bitrate=4500 / ratetol=1.0 / qcomp=0.60 / qpmin=10 / qpmax=51 / qpstep=4 / ip_ratio=1.40 / aq=1:1.00
Default                                  : Да
Forced                                   : Нет

Аудио
Идентификатор                            : 2
Формат                                   : AC-3
Формат/Информация                        : Audio Coding 3
Расширение режима                        : CM (complete main)
Параметр Endianness формата              : Big
Идентификатор кодека                     : A_AC3
Продолжительность                        : 46 м.
Вид битрейта                             : Постоянный
Битрейт                                  : 448 Кбит/сек
Каналы                                   : 6 каналов
Расположение каналов                     : Front: L C R, Side: L R, LFE
Частота                                  : 48,0 КГц
Частота кадров                           : 31,250 кадров/сек (1536 spf)
Метод сжатия                             : С потерями
Размер потока                            : 150 Мбайт (9%)
Язык                                     : Russian
Default                                  : Да
Forced                                   : Да
 
Не забывайте говорить Спасибо. Не уходите с раздачи!   
Торрент: Зарегистрирован [09 июл 2016, 20:45] Для скачивания .torrent
необходима регистрация
Или скачать с помощью
MediaGet
Статус:
Проверен
 
.torrent скачан: 1 раз
Хэш: fdf15fbbb8a69454bdc3ecd9c9fb649eea3ebc16
Размер: 4.87 ГБ (5 228 076 402 байт)
Стать Автором раздачи
 
 
Раздал: 100 ГБ
Скачал: 0 байт
Ратио: Seed.
Сообщения: 85837
Зарегистрирован: 09 апр 2015, 22:31


  • Похожие торренты
    Ответы
    Просмотры
    Последнее сообщение

Вернуться в Космос (видео)

Кто сейчас на конференции

Сейчас эту тему просматривают: нет зарегистрированных пользователей и гости: 1

Ресурс не предоставляет электронные версии произведений, а занимается лишь коллекционированием и каталогизацией ссылок, присылаемых и публикуемых на форуме нашими читателями. Если вы являетесь правообладателем какого-либо представленного материала и не желаете чтобы ссылка на него находилась в нашем каталоге, свяжитесь с нами и мы незамедлительно удалим её. Файлы для обмена на трекере предоставлены пользователями сайта, и администрация не несёт ответственности за их содержание. Просьба не заливать файлы, защищенные авторскими правами, а также файлы нелегального содержания!