Дэдпул / Deadpool (2016) BDRip [H.264] [MP4|952x400]

 
 Статистика раздачи 
Размер: 1.6 ГБ   |  Зарегистрирован: 09 июл 2016, 16:34   |   .torrent скачан: 1 раз
Сидеров: 1  [ 0 байт/сек ]     Личеров: 2  [ 0 байт/сек ]  
  

Дэдпул / Deadpool (2016) BDRip [H.264] [MP4|952x400]

Сообщение explosiveone » 09 июл 2016, 16:34

Дэдпул / Deadpool (2016) BDRip
«Стань свидетелем, как он кончит»

Производство: США, Канада / 20th Century Fox Film Corporation, Donners' Company, Kinberg Genre
Жанр: фантастика, боевик, комедия, приключения

Режиссер: Тим Миллер
Продюсер: Саймон Кинберг, Райан Рейнольдс, Лорен Шулер Доннер
Актеры: Райан Рейнольдс, Морена Баккарин, Эд Скрейн, ТиДжей Миллер, Джина Карано, Брианна Хилдебранд, Стефан Капичич, Лесли Уггэмс, Джед Риис, Каран Сони, Майкл Беняер, Стайл Дэйн, Кайл Кэсси, Тэйлор Хиксон, Айзи, Наика Туссэн, Рендал Ридер, Айзек С. Синглтон мл., Джастин Шиппелт, Донна Ямамото

Описание:
Уэйд Уилсон — наёмник. Будучи побочным продуктом программы вооружённых сил под названием «Оружие X», Уилсон приобрёл невероятную силу, проворство и способность к исцелению. Но страшной ценой: его клеточная структура постоянно меняется, а здравомыслие сомнительно. Всё, чего Уилсон хочет, — это держаться на плаву в социальной выгребной яме. Но течение в ней слишком быстрое.


Возраст: 18+ (зрителям, достигшим 18 лет. запрещено для детей)
Рейтинг MPAA: R (лицам до 17 лет обязательно присутствие взрослого)

Релиз от: NNMClub
Продолжительность: 01:48:06
Качество видео: BDRip
Перевод: Дублированный (Лицензия BD CEE), Профессиональный (многоголосый, закадровый) (Кубик в Кубе, нецензурная лексика)

Видео: AVC/H.264 (High@L4.1), 952x400 (2,40:1), ~1800 Кбит/сек. 23,976 Кадр/сек.
Аудио 1: AAC LC, 2.0, 160 Кбит/сек - Русский (DUB BD CEE)
Аудио 2: AAC LC, 2.0, 160 Кбит/сек - Русский (MVO Кубик в Кубе)
Код:
Код: Выделить всё
General
Complete name               : D:\Дэдпул.2016.BDRip.NNMClub.mp4
Format                      : MPEG-4
Format profile              : Base Media
Codec ID                    : isom (isom/avc1/iso6)
File size                   : 1.60 GiB
Duration                    : 1 h 48 min
Overall bit rate mode       : Variable
Overall bit rate            : 2 125 kb/s
Encoded date                : UTC 2016-07-09 12:32:41
Tagged date                 : UTC 2016-07-09 12:32:41

Video
ID                          : 1
Format                      : AVC
Format/Info                 : Advanced Video Codec
Format profile              :
Format settings, CABAC      : Yes
Format settings, ReFrames   : 10 frames
Codec ID                    : avc1
Codec ID/Info               : Advanced Video Coding
Duration                    : 1 h 48 min
Bit rate                    : 1 800 kb/s
Maximum bit rate            : 7 415 kb/s
Width                       : 952 pixels
Height                      : 400 pixels
Display aspect ratio        : 2.40:1
Frame rate mode             : Constant
Frame rate                  : 23.976 (24000/1001) FPS
Color space                 : YUV
Chroma subsampling          : 4:2:0
Bit depth                   : 8 bits
Scan type                   : Progressive
Bits/(Pixel*Frame)          : 0.197
Stream size                 : 1.36 GiB (85%)
Title                       : Deadpool
Writing library             : x264 core 148 r2638 7599210
Encoding settings           : cabac=1 / ref=10 / deblock=1:-1:-1 / analyse=0x3:0x133 / me=umh / subme=11 / psy=1 / psy_rd=1.00:0.00 / mixed_ref=1 / me_range=48 / chroma_me=1 / trellis=2 / 8x8dct=1 / cqm=0 / deadzone=21,11 / fast_pskip=0 / chroma_qp_offset=-2 / threads=12 / lookahead_threads=3 / sliced_threads=0 / nr=0 / decimate=1 / interlaced=0 / bluray_compat=0 / constrained_intra=0 / bframes=11 / b_pyramid=2 / b_adapt=2 / b_bias=0 / direct=3 / weightb=1 / open_gop=0 / weightp=2 / keyint=240 / keyint_min=23 / scenecut=40 / intra_refresh=0 / rc_lookahead=60 / rc=2pass / mbtree=0 / bitrate=1800 / ratetol=1.0 / qcomp=0.60 / qpmin=0 / qpmax=69 / qpstep=4 / cplxblur=20.0 / qblur=0.5 / vbv_maxrate=20000 / vbv_bufsize=25000 / nal_hrd=none / filler=0 / ip_ratio=1.40 / pb_ratio=1.30 / aq=1:1.00
Encoded date                : UTC 2016-07-09 12:32:41
Tagged date                 : UTC 2016-07-09 12:33:43

Audio #1
ID                          : 2
Format                      : AAC
Format/Info                 : Advanced Audio Codec
Format profile              : LC
Codec ID                    : 40
Duration                    : 1 h 48 min
Source duration             : 1 h 48 min
Bit rate mode               : Variable
Bit rate                    : 160 kb/s
Maximum bit rate            : 169 kb/s
Channel(s)                  : 2 channels
Channel positions           : Front: L R
Sampling rate               : 48.0 kHz
Frame rate                  : 46.875 FPS (1024 spf)
Compression mode            : Lossy
Stream size                 : 124 MiB (8%)
Source stream size          : 124 MiB (8%)
Title                       : DUB BD CEE
Language                    : Russian
Encoded date                : UTC 2016-07-09 12:33:24
Tagged date                 : UTC 2016-07-09 12:33:43

Audio #2
ID                          : 3
Format                      : AAC
Format/Info                 : Advanced Audio Codec
Format profile              : LC
Codec ID                    : 40
Duration                    : 1 h 48 min
Source duration             : 1 h 48 min
Bit rate mode               : Variable
Bit rate                    : 160 kb/s
Maximum bit rate            : 169 kb/s
Channel(s)                  : 2 channels
Channel positions           : Front: L R
Sampling rate               : 48.0 kHz
Frame rate                  : 46.875 FPS (1024 spf)
Compression mode            : Lossy
Stream size                 : 124 MiB (8%)
Source stream size          : 124 MiB (8%)
Title                       : MVO KvK
Language                    : Russian
Encoded date                : UTC 2016-07-09 12:33:34
Tagged date                 : UTC 2016-07-09 12:33:43
Код:
Код: Выделить всё
x264 [info]: profile High, level 4.1
x264 [info]: frame I:1507  Avg QP:14.93  size: 58452
x264 [info]: frame P:35945 Avg QP:17.83  size: 18138
x264 [info]: frame B:118062 Avg QP:19.79  size:  6089
x264 [info]: consecutive B-frames:  3.1%  3.6%  9.0% 25.4% 16.3% 31.1%  4.1%  3.8%  1.0%  0.7%  0.5%  1.5%
x264 [info]: mb I  I16..4:  4.5% 76.6% 19.0%
x264 [info]: mb P  I16..4:  1.0% 11.8%  2.0%  P16..4: 28.8% 34.5% 13.2%  2.4%  0.2%    skip: 6.2%
x264 [info]: mb B  I16..4:  0.1%  1.1%  0.2%  B16..8: 35.4% 21.8%  3.8%  direct: 4.9%  skip:32.6%  L0:43.4% L1:45.3% BI:11.2%
x264 [info]: 8x8 transform intra:78.9% inter:59.2%
x264 [info]: direct mvs  spatial:97.9% temporal:2.1%
x264 [info]: coded y,uvDC,uvAC intra: 87.5% 79.5% 52.9% inter: 23.7% 15.8% 3.6%
x264 [info]: i16 v,h,dc,p: 28% 13%  5% 54%
x264 [info]: i8 v,h,dc,ddl,ddr,vr,hd,vl,hu:  7%  9%  6% 10% 14% 13% 14% 12% 14%
x264 [info]: i4 v,h,dc,ddl,ddr,vr,hd,vl,hu:  8% 10%  5%  9% 15% 14% 14% 11% 13%
x264 [info]: i8c dc,h,v,p: 37% 27% 18% 19%
x264 [info]: Weighted P-Frames: Y:4.7% UV:2.4%
x264 [info]: ref P L0: 51.2%  8.0% 16.2%  7.4%  5.3%  4.0%  3.1%  1.8%  1.5%  1.2%  0.2%  0.0%
x264 [info]: ref B L0: 72.5% 13.3%  5.9%  2.9%  2.0%  1.5%  1.1%  0.5%  0.2%
x264 [info]: ref B L1: 92.5%  7.5%
x264 [info]: kb/s:1799.50
Вся работа над релизом производилась стандартными и интегрируемыми средствами в MeGUI 2624.
Доступ к железу для кодирования предоставил Дядя Шарик.
Автор рипа Kreker.
Исходник: BDRemux.

Скриншоты:


Время раздачи: Круглосуточно, до первых 10-и скачавших.
 
Не забывайте говорить Спасибо. Не уходите с раздачи!   
Торрент: Зарегистрирован [09 июл 2016, 16:34] Для скачивания .torrent
необходима регистрация
Или скачать с помощью
MediaGet
Статус:
Проверен
 
.torrent скачан: 1 раз
Хэш: 4c7f6202f4d2385d98e6a6f3700c56b0a547ea79
Размер: 1.6 ГБ (1 722 963 672 байт)
Стать Автором раздачи
 
 
Раздал: 100 ГБ
Скачал: 0 байт
Ратио: Seed.
Сообщения: 94059
Зарегистрирован: 09 апр 2015, 22:31


  • Похожие торренты
    Ответы
    Просмотры
    Последнее сообщение

Вернуться в Видео для мобильных устройств

Ресурс не предоставляет электронные версии произведений, а занимается лишь коллекционированием и каталогизацией ссылок, присылаемых и публикуемых на форуме нашими читателями. Если вы являетесь правообладателем какого-либо представленного материала и не желаете чтобы ссылка на него находилась в нашем каталоге, свяжитесь с нами и мы незамедлительно удалим её. Файлы для обмена на трекере предоставлены пользователями сайта, и администрация не несёт ответственности за их содержание. Просьба не заливать файлы, защищенные авторскими правами, а также файлы нелегального содержания!
cron