Групповой портрет на фоне Бурана (Александр Славин)[2002, военно-историчекий, TVRip]

 
 Статистика раздачи 
Размер: 278.82 МБ   |  Зарегистрирован: 09 июл 2016, 02:43   |   .torrent скачан: 0 раз
Сидеров: 1  [ 0 байт/сек ]     Личеров: 0  [ 0 байт/сек ]  
  

Групповой портрет на фоне Бурана (Александр Славин)[2002, военно-историчекий, TVRip]

Сообщение aLaVodka » 09 июл 2016, 02:43

Групповой портрет на фоне Бурана

Дата/Год выпуска: 2002
Страна
: Россия
Жанр: военно-историчекий
Продолжительность: 00:26:19
Перевод: Не требуется
Русские субтитры: нет
Оригинальная аудиодорожка: русский
Режиссёр: Александр Славин

Описание: Фильм о парадоксальной судьбе проекта отечественного космического корабля многоразового использования *Буран*.

качество: TVRip
формат: AVI
Видео: MPEG4, XviD, 512x384 (4:3), 25.000 fps, 1 376 Kbps (0.280 bit/pixel)
Аудио: MP3, 48.0 KHz, 2 ch, 96.0 Kbps, CBR
Код: Выделить всё
General
Complete name                            : G:\документалка\Групповой портрет на фоне Бурана.avi
Format                                   : AVI
Format/Info                              : Audio Video Interleave
File size                                : 279 MiB
Duration                                 : 26mn 19s
Overall bit rate                         : 1 481 Kbps

Video
ID                                       : 0
Format                                   : MPEG-4 Visual
Format profile                           : Advanced [email protected]
Format settings, BVOP                    : 1
Format settings, QPel                    : No
Format settings, GMC                     : No warppoints
Format settings, Matrix                  : Default (MPEG)
Codec ID                                 : XVID
Codec ID/Hint                            : XviD
Duration                                 : 26mn 19s
Bit rate                                 : 1 375 Kbps
Width                                    : 512 pixels
Height                                   : 384 pixels
Display aspect ratio                     : 4:3
Frame rate                               : 25.000 fps
Color space                              : YUV
Chroma subsampling                       : 4:2:0
Bit depth                                : 8 bits
Scan type                                : Progressive
Compression mode                         : Lossy
Bits/(Pixel*Frame)                       : 0.280
Stream size                              : 259 MiB (93%)
Writing library                          : XviD 1.0.2 (UTC 2004-08-29)

Audio
ID                                       : 1
Format                                   : MPEG Audio
Format version                           : Version 1
Format profile                           : Layer 3
Mode                                     : Joint stereo
Mode extension                           : MS Stereo
Codec ID                                 : 55
Codec ID/Hint                            : MP3
Duration                                 : 26mn 18s
Bit rate mode                            : Constant
Bit rate                                 : 96.0 Kbps
Channel(s)                               : 2 channels
Sampling rate                            : 48.0 KHz
Compression mode                         : Lossy
Stream size                              : 18.1 MiB (6%)
Alignment                                : Aligned on interleaves
Interleave, duration                     : 40 ms (1.00 video frame)
Interleave, preload duration             : 504 ms
Writing library                          : LAME3.96r
Encoding settings                        : -m j -V 4 -q 2 -lowpass 16 -b 96
 
Не забывайте говорить Спасибо. Не уходите с раздачи!   
Торрент: Зарегистрирован [09 июл 2016, 02:43] Для скачивания .torrent
необходима регистрация
Или скачать с помощью
MediaGet
Статус:
Проверен
 
.torrent скачан: 0 раз
Хэш: ab0d6648e3d0cb6d292427ba87908f9fc5d1bcf8
Размер: 278.82 МБ (292 362 376 байт)
Стать Автором раздачи
 
 
Раздал: 100 ГБ
Скачал: 0 байт
Ратио: Seed.
Сообщения: 182341
Зарегистрирован: 09 апр 2015, 20:00


  • Похожие торренты
    Ответы
    Просмотры
    Последнее сообщение

Вернуться в Космос (видео)

Кто сейчас на конференции

Сейчас эту тему просматривают: нет зарегистрированных пользователей и гости: 1

Ресурс не предоставляет электронные версии произведений, а занимается лишь коллекционированием и каталогизацией ссылок, присылаемых и публикуемых на форуме нашими читателями. Если вы являетесь правообладателем какого-либо представленного материала и не желаете чтобы ссылка на него находилась в нашем каталоге, свяжитесь с нами и мы незамедлительно удалим её. Файлы для обмена на трекере предоставлены пользователями сайта, и администрация не несёт ответственности за их содержание. Просьба не заливать файлы, защищенные авторскими правами, а также файлы нелегального содержания!