Online poker. Видео c комментариями Purity [2012-2015, покер, HDTV]

 
 Статистика раздачи 
Размер: 43.03 ГБ   |  Зарегистрирован: 05 июл 2016, 18:22   |   .torrent скачан: 0 раз
Сидеров: 1  [ 0 байт/сек ]     Личеров: 0  [ 0 байт/сек ]  
  

Online poker. Видео c комментариями Purity [2012-2015, покер, HDTV]

Сообщение aLaVodka » 05 июл 2016, 18:22


Вид спорта: Онлайн покер
Дата/Год выпуска: 2012-2015
Язык комментариев: русский

Описание: Видео с комментариями Purity. Торрент будет обновляться по мере выхода новых эпизодов.

Автор рипа/записи: purity
Качество: HDTV
Формат видео: MP4
Видео: ~ AVC, 1024x768, 15 fps, 146 Kbps
Аудио: ~ AAC, 44.1 KHz, 2 channels, 53.6 Kbps
(более подробные тех.данные под спойлером)


Длительность: 1час 19минут.
Format : MPEG-4
Format profile : Base Media / Version 2
Codec ID : mp42
File size : 115 MiB
Duration : 1h 19mn
Overall bit rate : 202 Kbps
Encoded date : UTC 2012-07-01 22:36:48
Tagged date : UTC 2012-07-01 22:36:48

Video
ID : 1
Format : AVC
Format/Info : Advanced Video Codec
Format profile : High@L3.1
Format settings, CABAC : Yes
Format settings, ReFrames : 4 frames
Format settings, GOP : M=1, N=75
Codec ID : avc1
Codec ID/Info : Advanced Video Coding
Duration : 1h 19mn
Source duration : 1h 19mn
Bit rate mode : Variable
Bit rate : 146 Kbps
Width : 1 024 pixels
Height : 768 pixels
Display aspect ratio : 4:3
Frame rate mode : Constant
Frame rate : 15.000 fps
Color space : YUV
Chroma subsampling : 4:2:0
Bit depth : 8 bits
Scan type : Progressive
Bits/(Pixel*Frame) : 0.012
Stream size : 83.3 MiB (72%)
Source stream size : 83.3 MiB (72%)
Language : English
Encoded date : UTC 2012-07-01 22:36:48
Tagged date : UTC 2012-07-01 22:36:48
mdhd_Duration : 4770139
Color primaries : BT.709
Transfer characteristics : BT.709
Matrix coefficients : BT.709

Audio
ID : 2
Format : AAC
Format/Info : Advanced Audio Codec
Format profile : LC
Codec ID : 40
Duration : 1h 19mn
Source duration : 1h 19mn
Bit rate mode : Constant
Bit rate : 53.6 Kbps
Channel(s) : 2 channels
Channel positions : Front: L R
Sampling rate : 44.1 KHz
Compression mode : Lossy
Stream size : 30.5 MiB (27%)
Source stream size : 30.5 MiB (27%)
Language : English
Encoded date : UTC 2012-07-01 22:36:48
Tagged date : UTC 2012-07-01 22:36:48
mdhd_Duration : 4770915


Длительность: 40мин 15сек
Format : MPEG-4
Format profile : Base Media / Version 2
Codec ID : mp42
File size : 77.1 MiB
Duration : 40mn 14s
Overall bit rate : 268 Kbps
Encoded date : UTC 2012-07-24 00:19:16
Tagged date : UTC 2012-07-24 00:19:16

Video
ID : 1
Format : AVC
Format/Info : Advanced Video Codec
Format profile : High@L3.1
Format settings, CABAC : Yes
Format settings, ReFrames : 4 frames
Format settings, GOP : M=1, N=75
Codec ID : avc1
Codec ID/Info : Advanced Video Coding
Duration : 40mn 14s
Source duration : 40mn 14s
Bit rate mode : Variable
Bit rate : 212 Kbps
Width : 1 002 pixels
Height : 780 pixels
Display aspect ratio : 1.285
Frame rate mode : Constant
Frame rate : 15.000 fps
Color space : YUV
Chroma subsampling : 4:2:0
Bit depth : 8 bits
Scan type : Progressive
Bits/(Pixel*Frame) : 0.018
Stream size : 61.0 MiB (79%)
Source stream size : 61.0 MiB (79%)
Language : English
Encoded date : UTC 2012-07-24 00:19:16
Tagged date : UTC 2012-07-24 00:19:16
mdhd_Duration : 2413987
Color primaries : BT.709
Transfer characteristics : BT.709
Matrix coefficients : BT.709

Audio
ID : 2
Format : AAC
Format/Info : Advanced Audio Codec
Format profile : LC
Codec ID : 40
Duration : 40mn 14s
Source duration : 40mn 14s
Bit rate mode : Constant
Bit rate : 53.6 Kbps
Channel(s) : 2 channels
Channel positions : Front: L R
Sampling rate : 44.1 KHz
Compression mode : Lossy
Stream size : 15.4 MiB (20%)
Source stream size : 15.4 MiB (20%)
Language : English
Encoded date : UTC 2012-07-24 00:19:16
Tagged date : UTC 2012-07-24 00:19:16
mdhd_Duration : 2412310


Длительность: 42мин 23сек
Format : MPEG-4
Format profile : Base Media / Version 2
Codec ID : mp42
File size : 86.0 MiB
Duration : 42mn 22s
Overall bit rate : 284 Kbps
Encoded date : UTC 2012-07-24 00:03:41
Tagged date : UTC 2012-07-24 00:03:41

Video
ID : 1
Format : AVC
Format/Info : Advanced Video Codec
Format profile : High@L3.1
Format settings, CABAC : Yes
Format settings, ReFrames : 4 frames
Format settings, GOP : M=1, N=75
Codec ID : avc1
Codec ID/Info : Advanced Video Coding
Duration : 42mn 22s
Source duration : 42mn 22s
Bit rate mode : Variable
Bit rate : 228 Kbps
Width : 1 002 pixels
Height : 780 pixels
Display aspect ratio : 1.285
Frame rate mode : Constant
Frame rate : 15.000 fps
Color space : YUV
Chroma subsampling : 4:2:0
Bit depth : 8 bits
Scan type : Progressive
Bits/(Pixel*Frame) : 0.019
Stream size : 69.2 MiB (80%)
Source stream size : 69.2 MiB (80%)
Language : English
Encoded date : UTC 2012-07-24 00:03:41
Tagged date : UTC 2012-07-24 00:03:41
mdhd_Duration : 2542489
Color primaries : BT.709
Transfer characteristics : BT.709
Matrix coefficients : BT.709

Audio
ID : 2
Format : AAC
Format/Info : Advanced Audio Codec
Format profile : LC
Codec ID : 40
Duration : 42mn 22s
Source duration : 42mn 22s
Bit rate mode : Constant
Bit rate : 53.6 Kbps
Channel(s) : 2 channels
Channel positions : Front: L R
Sampling rate : 44.1 KHz
Compression mode : Lossy
Stream size : 16.2 MiB (19%)
Source stream size : 16.2 MiB (19%)
Language : English
Encoded date : UTC 2012-07-24 00:03:41
Tagged date : UTC 2012-07-24 00:03:41
mdhd_Duration : 2540685


Длительность: 42мин 11сек
Format : MPEG-4
Format profile : Base Media / Version 2
Codec ID : mp42
File size : 89.6 MiB
Duration : 42mn 10s
Overall bit rate : 297 Kbps
Encoded date : UTC 2012-07-24 00:35:05
Tagged date : UTC 2012-07-24 00:35:05

Video
ID : 1
Format : AVC
Format/Info : Advanced Video Codec
Format profile : High@L3.1
Format settings, CABAC : Yes
Format settings, ReFrames : 4 frames
Format settings, GOP : M=1, N=75
Codec ID : avc1
Codec ID/Info : Advanced Video Coding
Duration : 42mn 10s
Source duration : 42mn 10s
Bit rate mode : Variable
Bit rate : 241 Kbps
Width : 1 002 pixels
Height : 780 pixels
Display aspect ratio : 1.285
Frame rate mode : Constant
Frame rate : 15.000 fps
Color space : YUV
Chroma subsampling : 4:2:0
Bit depth : 8 bits
Scan type : Progressive
Bits/(Pixel*Frame) : 0.021
Stream size : 72.8 MiB (81%)
Source stream size : 72.8 MiB (81%)
Language : English
Encoded date : UTC 2012-07-24 00:35:05
Tagged date : UTC 2012-07-24 00:35:05
mdhd_Duration : 2529692
Color primaries : BT.709
Transfer characteristics : BT.709
Matrix coefficients : BT.709

Audio
ID : 2
Format : AAC
Format/Info : Advanced Audio Codec
Format profile : LC
Codec ID : 40
Duration : 42mn 10s
Source duration : 42mn 10s
Bit rate mode : Constant
Bit rate : 53.6 Kbps
Channel(s) : 2 channels
Channel positions : Front: L R
Sampling rate : 44.1 KHz
Compression mode : Lossy
Stream size : 16.2 MiB (18%)
Source stream size : 16.2 MiB (18%)
Language : English
Encoded date : UTC 2012-07-24 00:35:05
Tagged date : UTC 2012-07-24 00:35:05
mdhd_Duration : 2527906


Длительность: 48мин 58сек
Format : MPEG-4
Format profile : Base Media / Version 2
Codec ID : mp42
File size : 160 MiB
Duration : 48mn 57s
Overall bit rate : 457 Kbps
Encoded date : UTC 2012-08-22 23:49:35
Tagged date : UTC 2012-08-22 23:49:35

Video
ID : 1
Format : AVC
Format/Info : Advanced Video Codec
Format profile : High@L4.0
Format settings, CABAC : Yes
Format settings, ReFrames : 4 frames
Format settings, GOP : M=1, N=75
Codec ID : avc1
Codec ID/Info : Advanced Video Coding
Duration : 48mn 57s
Source duration : 48mn 57s
Bit rate mode : Variable
Bit rate : 377 Kbps
Width : 1 594 pixels
Height : 1 214 pixels
Display aspect ratio : 4:3
Frame rate mode : Constant
Frame rate : 15.000 fps
Color space : YUV
Chroma subsampling : 4:2:0
Bit depth : 8 bits
Scan type : Progressive
Bits/(Pixel*Frame) : 0.013
Stream size : 132 MiB (82%)
Source stream size : 141 MiB (88%)
Language : English
Encoded date : UTC 2012-08-22 23:49:35
Tagged date : UTC 2012-08-22 23:49:35
mdhd_Duration : 2937392
Color primaries : BT.709
Transfer characteristics : BT.709
Matrix coefficients : BT.709

Audio
ID : 2
Format : AAC
Format/Info : Advanced Audio Codec
Format profile : LC
Codec ID : 40
Duration : 48mn 57s
Source duration : 48mn 57s
Bit rate mode : Constant
Bit rate : 53.6 Kbps
Channel(s) : 2 channels
Channel positions : Front: L R
Sampling rate : 44.1 KHz
Compression mode : Lossy
Stream size : 18.8 MiB (12%)
Source stream size : 18.8 MiB (12%)
Language : English
Encoded date : UTC 2012-08-22 23:49:35
Tagged date : UTC 2012-08-22 23:49:35
mdhd_Duration : 2935251


Длительность: 45мин 57сек
Format : MPEG-4
Format profile : Base Media / Version 2
Codec ID : mp42
File size : 157 MiB
Duration : 45mn 56s
Overall bit rate : 479 Kbps
Encoded date : UTC 2012-09-13 23:37:31
Tagged date : UTC 2012-09-13 23:37:31

Video
ID : 1
Format : AVC
Format/Info : Advanced Video Codec
Format profile : High@L4.0
Format settings, CABAC : Yes
Format settings, ReFrames : 4 frames
Format settings, GOP : M=1, N=75
Codec ID : avc1
Codec ID/Info : Advanced Video Coding
Duration : 45mn 56s
Source duration : 45mn 56s
Bit rate mode : Variable
Bit rate : 423 Kbps
Width : 1 586 pixels
Height : 1 200 pixels
Display aspect ratio : 4:3
Frame rate mode : Constant
Frame rate : 15.000 fps
Color space : YUV
Chroma subsampling : 4:2:0
Bit depth : 8 bits
Scan type : Progressive
Bits/(Pixel*Frame) : 0.015
Stream size : 139 MiB (88%)
Source stream size : 139 MiB (88%)
Language : English
Encoded date : UTC 2012-09-13 23:37:31
Tagged date : UTC 2012-09-13 23:37:31
mdhd_Duration : 2755637
Color primaries : BT.709
Transfer characteristics : BT.709
Matrix coefficients : BT.709

Audio
ID : 2
Format : AAC
Format/Info : Advanced Audio Codec
Format profile : LC
Codec ID : 40
Duration : 45mn 56s
Source duration : 45mn 56s
Bit rate mode : Constant
Bit rate : 53.6 Kbps
Channel(s) : 2 channels
Channel positions : Front: L R
Sampling rate : 44.1 KHz
Compression mode : Lossy
Stream size : 17.6 MiB (11%)
Source stream size : 17.6 MiB (11%)
Language : English
Encoded date : UTC 2012-09-13 23:37:31
Tagged date : UTC 2012-09-13 23:37:31
mdhd_Duration : 2753647


Длительность: 40мин 13сек
Format : MPEG-4
Format profile : Base Media / Version 2
Codec ID : mp42
File size : 62.8 MiB
Duration : 40mn 12s
Overall bit rate : 218 Kbps
Encoded date : UTC 2012-09-21 22:53:42
Tagged date : UTC 2012-09-21 22:53:42

Video
ID : 1
Format : AVC
Format/Info : Advanced Video Codec
Format profile : High@L3.2
Format settings, CABAC : Yes
Format settings, ReFrames : 4 frames
Format settings, GOP : M=1, N=75
Codec ID : avc1
Codec ID/Info : Advanced Video Coding
Duration : 40mn 12s
Source duration : 40mn 12s
Bit rate mode : Variable
Bit rate : 147 Kbps
Width : 1 570 pixels
Height : 604 pixels
Display aspect ratio : 2.599
Frame rate mode : Constant
Frame rate : 15.000 fps
Color space : YUV
Chroma subsampling : 4:2:0
Bit depth : 8 bits
Scan type : Progressive
Bits/(Pixel*Frame) : 0.010
Stream size : 42.4 MiB (67%)
Source stream size : 46.8 MiB (75%)
Language : English
Encoded date : UTC 2012-09-21 22:53:42
Tagged date : UTC 2012-09-21 22:53:42
mdhd_Duration : 2412120
Color primaries : BT.709
Transfer characteristics : BT.709
Matrix coefficients : BT.709

Audio
ID : 2
Format : AAC
Format/Info : Advanced Audio Codec
Format profile : LC
Codec ID : 40
Duration : 40mn 12s
Source duration : 40mn 12s
Bit rate mode : Constant
Bit rate : 53.6 Kbps
Channel(s) : 2 channels
Channel positions : Front: L R
Sampling rate : 44.1 KHz
Compression mode : Lossy
Stream size : 15.4 MiB (25%)
Source stream size : 15.4 MiB (25%)
Language : English
Encoded date : UTC 2012-09-21 22:53:42
Tagged date : UTC 2012-09-21 22:53:42
mdhd_Duration : 2410455


Длительность: 33мин 54сек
Format : MPEG-4
Format profile : Base Media / Version 2
Codec ID : mp42
File size : 57.0 MiB
Duration : 33mn 53s
Overall bit rate : 235 Kbps
Encoded date : UTC 2012-09-21 23:08:20
Tagged date : UTC 2012-09-21 23:08:20

Video
ID : 1
Format : AVC
Format/Info : Advanced Video Codec
Format profile : High@L3.2
Format settings, CABAC : Yes
Format settings, ReFrames : 4 frames
Format settings, GOP : M=1, N=75
Codec ID : avc1
Codec ID/Info : Advanced Video Coding
Duration : 33mn 53s
Source duration : 33mn 53s
Bit rate mode : Variable
Bit rate : 163 Kbps
Width : 1 570 pixels
Height : 604 pixels
Display aspect ratio : 2.599
Frame rate mode : Constant
Frame rate : 15.000 fps
Color space : YUV
Chroma subsampling : 4:2:0
Bit depth : 8 bits
Scan type : Progressive
Bits/(Pixel*Frame) : 0.011
Stream size : 39.6 MiB (69%)
Source stream size : 43.5 MiB (76%)
Language : English
Encoded date : UTC 2012-09-21 23:08:20
Tagged date : UTC 2012-09-21 23:08:20
mdhd_Duration : 2033613
Color primaries : BT.709
Transfer characteristics : BT.709
Matrix coefficients : BT.709

Audio
ID : 2
Format : AAC
Format/Info : Advanced Audio Codec
Format profile : LC
Codec ID : 40
Duration : 33mn 53s
Source duration : 33mn 53s
Bit rate mode : Constant
Bit rate : 53.6 Kbps
Channel(s) : 2 channels
Channel positions : Front: L R
Sampling rate : 44.1 KHz
Compression mode : Lossy
Stream size : 13.0 MiB (23%)
Source stream size : 13.0 MiB (23%)
Language : English
Encoded date : UTC 2012-09-21 23:08:20
Tagged date : UTC 2012-09-21 23:08:20
mdhd_Duration : 2032287


Длительность: 49мин 55сек
Format : MPEG-4
Format profile : Base Media / Version 2
Codec ID : mp42
File size : 68.5 MiB
Duration : 49mn 54s
Overall bit rate : 192 Kbps
Encoded date : UTC 2012-10-20 00:12:13
Tagged date : UTC 2012-10-20 00:12:13

Video
ID : 1
Format : AVC
Format/Info : Advanced Video Codec
Format profile : Main@L3.1
Format settings, CABAC : Yes
Format settings, ReFrames : 4 frames
Format settings, GOP : M=1, N=75
Codec ID : avc1
Codec ID/Info : Advanced Video Coding
Duration : 49mn 54s
Source duration : 49mn 54s
Bit rate mode : Variable
Bit rate : 136 Kbps
Width : 1 552 pixels
Height : 586 pixels
Display aspect ratio : 2.648
Frame rate mode : Constant
Frame rate : 15.000 fps
Color space : YUV
Chroma subsampling : 4:2:0
Bit depth : 8 bits
Scan type : Progressive
Bits/(Pixel*Frame) : 0.010
Stream size : 48.7 MiB (71%)
Source stream size : 48.7 MiB (71%)
Language : English
Encoded date : UTC 2012-10-20 00:12:13
Tagged date : UTC 2012-10-20 00:12:13
mdhd_Duration : 2994045

Audio
ID : 2
Format : AAC
Format/Info : Advanced Audio Codec
Format profile : LC
Codec ID : 40
Duration : 49mn 54s
Source duration : 49mn 54s
Bit rate mode : Constant
Bit rate : 53.6 Kbps
Channel(s) : 2 channels
Channel positions : Front: L R
Sampling rate : 44.1 KHz
Compression mode : Lossy
Stream size : 19.1 MiB (28%)
Source stream size : 19.1 MiB (28%)
Language : English
Encoded date : UTC 2012-10-20 00:12:13
Tagged date : UTC 2012-10-20 00:12:13
mdhd_Duration : 2991843


Длительность: 41мин 5сек
Format : MPEG-4
Format profile : Base Media / Version 2
Codec ID : mp42
File size : 141 MiB
Duration : 41mn 4s
Overall bit rate : 479 Kbps
Encoded date : UTC 2013-03-25 22:08:07
Tagged date : UTC 2013-03-25 22:08:07

Video
ID : 1
Format : AVC
Format/Info : Advanced Video Codec
Format profile : High@L3.1
Format settings, CABAC : Yes
Format settings, ReFrames : 4 frames
Codec ID : avc1
Codec ID/Info : Advanced Video Coding
Duration : 41mn 4s
Source duration : 41mn 4s
Bit rate mode : Variable
Bit rate : 423 Kbps
Width : 1 394 pixels
Height : 510 pixels
Display aspect ratio : 2.733
Frame rate mode : Constant
Frame rate : 15.000 fps
Color space : YUV
Chroma subsampling : 4:2:0
Bit depth : 8 bits
Scan type : Progressive
Bits/(Pixel*Frame) : 0.040
Stream size : 124 MiB (88%)
Source stream size : 124 MiB (88%)
Language : English
Encoded date : UTC 2013-03-25 22:08:07
Tagged date : UTC 2013-03-25 22:08:07
mdhd_Duration : 2463841
Color primaries : BT.709
Transfer characteristics : BT.709
Matrix coefficients : BT.709

Audio
ID : 2
Format : AAC
Format/Info : Advanced Audio Codec
Format profile : LC
Codec ID : 40
Duration : 41mn 4s
Source duration : 41mn 4s
Bit rate mode : Constant
Bit rate : 53.6 Kbps
Channel(s) : 2 channels
Channel positions : Front: L R
Sampling rate : 44.1 KHz
Compression mode : Lossy
Stream size : 15.7 MiB (11%)
Source stream size : 15.7 MiB (11%)
Language : English
Encoded date : UTC 2013-03-25 22:08:07
Tagged date : UTC 2013-03-25 22:08:07
mdhd_Duration : 2462083


Длительность: 46мин 3сек
Format : MPEG-4
Format profile : Base Media / Version 2
Codec ID : mp42
File size : 218 MiB
Duration : 46mn 2s
Overall bit rate : 662 Kbps
Encoded date : UTC 2013-03-25 22:25:37
Tagged date : UTC 2013-03-25 22:25:37

Video
ID : 1
Format : AVC
Format/Info : Advanced Video Codec
Format profile : High@L3.2
Format settings, CABAC : Yes
Format settings, ReFrames : 4 frames
Codec ID : avc1
Codec ID/Info : Advanced Video Coding
Duration : 46mn 2s
Source duration : 46mn 2s
Bit rate mode : Variable
Bit rate : 607 Kbps
Width : 1 288 pixels
Height : 940 pixels
Display aspect ratio : 1.370
Frame rate mode : Constant
Frame rate : 15.000 fps
Color space : YUV
Chroma subsampling : 4:2:0
Bit depth : 8 bits
Scan type : Progressive
Bits/(Pixel*Frame) : 0.033
Stream size : 200 MiB (92%)
Source stream size : 200 MiB (92%)
Language : English
Encoded date : UTC 2013-03-25 22:25:37
Tagged date : UTC 2013-03-25 22:25:37
mdhd_Duration : 2761635
Color primaries : BT.709
Transfer characteristics : BT.709
Matrix coefficients : BT.709

Audio
ID : 2
Format : AAC
Format/Info : Advanced Audio Codec
Format profile : LC
Codec ID : 40
Duration : 46mn 2s
Source duration : 46mn 2s
Bit rate mode : Constant
Bit rate : 53.6 Kbps
Channel(s) : 2 channels
Channel positions : Front: L R
Sampling rate : 44.1 KHz
Compression mode : Lossy
Stream size : 17.6 MiB (8%)
Source stream size : 17.6 MiB (8%)
Language : English
Encoded date : UTC 2013-03-25 22:25:37
Tagged date : UTC 2013-03-25 22:25:37
mdhd_Duration : 2759608


Длительность: 20мин 55сек
Format : MPEG-4
Format profile : Base Media / Version 2
Codec ID : mp42
File size : 122 MiB
Duration : 20mn 54s
Overall bit rate : 816 Kbps
Encoded date : UTC 2013-03-25 22:49:44
Tagged date : UTC 2013-03-25 22:49:44

Video
ID : 1
Format : AVC
Format/Info : Advanced Video Codec
Format profile : High@L3.2
Format settings, CABAC : Yes
Format settings, ReFrames : 4 frames
Codec ID : avc1
Codec ID/Info : Advanced Video Coding
Duration : 20mn 54s
Source duration : 20mn 54s
Bit rate mode : Variable
Bit rate : 761 Kbps
Width : 1 260 pixels
Height : 912 pixels
Display aspect ratio : 1.382
Frame rate mode : Constant
Frame rate : 15.000 fps
Color space : YUV
Chroma subsampling : 4:2:0
Bit depth : 8 bits
Scan type : Progressive
Bits/(Pixel*Frame) : 0.044
Stream size : 114 MiB (93%)
Source stream size : 114 MiB (93%)
Language : English
Encoded date : UTC 2013-03-25 22:49:44
Tagged date : UTC 2013-03-25 22:49:44
mdhd_Duration : 1254203
Color primaries : BT.709
Transfer characteristics : BT.709
Matrix coefficients : BT.709

Audio
ID : 2
Format : AAC
Format/Info : Advanced Audio Codec
Format profile : LC
Codec ID : 40
Duration : 20mn 54s
Source duration : 20mn 54s
Bit rate mode : Constant
Bit rate : 53.6 Kbps
Channel(s) : 2 channels
Channel positions : Front: L R
Sampling rate : 44.1 KHz
Compression mode : Lossy
Stream size : 8.01 MiB (7%)
Source stream size : 8.01 MiB (7%)
Language : English
Encoded date : UTC 2013-03-25 22:49:44
Tagged date : UTC 2013-03-25 22:49:44
mdhd_Duration : 1253570


Длительность: 48мин 58сек
Format : MPEG-4
Format profile : Base Media / Version 2
Codec ID : mp42
File size : 389 MiB
Duration : 48mn 57s
Overall bit rate : 1 112 Kbps
Encoded date : UTC 2013-03-25 23:04:14
Tagged date : UTC 2013-03-25 23:04:14

Video
ID : 1
Format : AVC
Format/Info : Advanced Video Codec
Format profile : High@L4.0
Format settings, CABAC : Yes
Format settings, ReFrames : 4 frames
Codec ID : avc1
Codec ID/Info : Advanced Video Coding
Duration : 48mn 57s
Source duration : 48mn 57s
Bit rate mode : Variable
Bit rate : 1 005 Kbps
Width : 1 912 pixels
Height : 1 048 pixels
Display aspect ratio : 1.85:1
Frame rate mode : Constant
Frame rate : 15.000 fps
Color space : YUV
Chroma subsampling : 4:2:0
Bit depth : 8 bits
Scan type : Progressive
Bits/(Pixel*Frame) : 0.033
Stream size : 352 MiB (90%)
Source stream size : 370 MiB (95%)
Language : English
Encoded date : UTC 2013-03-25 23:04:14
Tagged date : UTC 2013-03-25 23:04:14
mdhd_Duration : 2936926
Color primaries : BT.709
Transfer characteristics : BT.709
Matrix coefficients : BT.709

Audio
ID : 2
Format : AAC
Format/Info : Advanced Audio Codec
Format profile : LC
Codec ID : 40
Duration : 48mn 57s
Source duration : 48mn 57s
Bit rate mode : Constant
Bit rate : 53.6 Kbps
Channel(s) : 2 channels
Channel positions : Front: L R
Sampling rate : 44.1 KHz
Compression mode : Lossy
Stream size : 18.8 MiB (5%)
Source stream size : 18.8 MiB (5%)
Language : English
Encoded date : UTC 2013-03-25 23:04:14
Tagged date : UTC 2013-03-25 23:04:14
mdhd_Duration : 2934787
General

Format : MPEG-4
Format profile : Base Media / Version 2
Codec ID : mp42
File size : 128 MiB
Duration : 27mn 14s
Overall bit rate : 659 Kbps
Encoded date : UTC 2013-04-09 19:10:13
Tagged date : UTC 2013-04-09 19:10:13

Video
ID : 1
Format : AVC
Format/Info : Advanced Video Codec
Format profile : High@L3.2
Format settings, CABAC : Yes
Format settings, ReFrames : 4 frames
Codec ID : avc1
Codec ID/Info : Advanced Video Coding
Duration : 27mn 14s
Source duration : 27mn 14s
Bit rate mode : Variable
Bit rate : 570 Kbps
Width : 1 224 pixels
Height : 962 pixels
Display aspect ratio : 1.272
Frame rate mode : Constant
Frame rate : 15.000 fps
Color space : YUV
Chroma subsampling : 4:2:0
Bit depth : 8 bits
Scan type : Progressive
Bits/(Pixel*Frame) : 0.032
Stream size : 111 MiB (87%)
Source stream size : 118 MiB (92%)
Language : English
Encoded date : UTC 2013-04-09 19:10:13
Tagged date : UTC 2013-04-09 19:10:13
mdhd_Duration : 1633977
Color primaries : BT.709
Transfer characteristics : BT.709
Matrix coefficients : BT.709

Audio
ID : 2
Format : AAC
Format/Info : Advanced Audio Codec
Format profile : LC
Codec ID : 40
Duration : 27mn 14s
Source duration : 27mn 14s
Bit rate mode : Constant
Bit rate : 53.6 Kbps
Channel(s) : 2 channels
Channel positions : Front: L R
Sampling rate : 44.1 KHz
Compression mode : Lossy
Stream size : 10.4 MiB (8%)
Source stream size : 10.4 MiB (8%)
Language : English
Encoded date : UTC 2013-04-09 19:10:13
Tagged date : UTC 2013-04-09 19:10:13
mdhd_Duration : 1633013
General
Format : MPEG-4
Format profile : Base Media / Version 2
Codec ID : mp42
File size : 124 MiB
Duration : 47mn 14s
Overall bit rate : 368 Kbps
Encoded date : UTC 2013-04-15 19:06:33
Tagged date : UTC 2013-04-15 19:06:33

Video
ID : 1
Format : AVC
Format/Info : Advanced Video Codec
Format profile : High@L3.1
Format settings, CABAC : Yes
Format settings, ReFrames : 4 frames
Codec ID : avc1
Codec ID/Info : Advanced Video Coding
Duration : 47mn 14s
Source duration : 47mn 14s
Bit rate mode : Variable
Bit rate : 312 Kbps
Width : 1 110 pixels
Height : 464 pixels
Display aspect ratio : 2.40:1
Frame rate mode : Constant
Frame rate : 15.000 fps
Color space : YUV
Chroma subsampling : 4:2:0
Bit depth : 8 bits
Scan type : Progressive
Bits/(Pixel*Frame) : 0.040
Stream size : 106 MiB (85%)
Source stream size : 106 MiB (85%)
Language : English
Encoded date : UTC 2013-04-15 19:06:33
Tagged date : UTC 2013-04-15 19:06:33
mdhd_Duration : 2834284
Color primaries : BT.709
Transfer characteristics : BT.709
Matrix coefficients : BT.709

Audio
ID : 2
Format : AAC
Format/Info : Advanced Audio Codec
Format profile : LC
Codec ID : 40
Duration : 47mn 14s
Source duration : 47mn 14s
Bit rate mode : Constant
Bit rate : 53.6 Kbps
Channel(s) : 2 channels
Channel positions : Front: L R
Sampling rate : 44.1 KHz
Compression mode : Lossy
Stream size : 18.1 MiB (15%)
Source stream size : 18.1 MiB (15%)
Language : English
Encoded date : UTC 2013-04-15 19:06:33
Tagged date : UTC 2013-04-15 19:06:33
mdhd_Duration : 2832226
General
Format : MPEG-4
Format profile : Base Media / Version 2
Codec ID : mp42
File size : 296 MiB
Duration : 39mn 37s
Overall bit rate : 1 043 Kbps
Encoded date : UTC 2013-05-06 15:17:58
Tagged date : UTC 2013-05-06 15:17:58

Video
ID : 1
Format : AVC
Format/Info : Advanced Video Codec
Format profile : High@L4.0
Format settings, CABAC : Yes
Format settings, ReFrames : 4 frames
Codec ID : avc1
Codec ID/Info : Advanced Video Coding
Duration : 39mn 37s
Source duration : 39mn 37s
Bit rate mode : Variable
Bit rate : 939 Kbps
Width : 1 358 pixels
Height : 1 024 pixels
Display aspect ratio : 4:3
Frame rate mode : Constant
Frame rate : 30.000 fps
Standard : NTSC
Color space : YUV
Chroma subsampling : 4:2:0
Bit depth : 8 bits
Scan type : Progressive
Bits/(Pixel*Frame) : 0.023
Stream size : 266 MiB (90%)
Source stream size : 280 MiB (95%)
Language : English
Encoded date : UTC 2013-05-06 15:17:58
Tagged date : UTC 2013-05-06 15:17:58
mdhd_Duration : 2378046
Color primaries : BT.709
Transfer characteristics : BT.709
Matrix coefficients : BT.709

Audio
ID : 2
Format : AAC
Format/Info : Advanced Audio Codec
Format profile : LC
Codec ID : 40
Duration : 39mn 37s
Source duration : 39mn 37s
Bit rate mode : Constant
Bit rate : 53.6 Kbps
Channel(s) : 2 channels
Channel positions : Front: L R
Sampling rate : 44.1 KHz
Compression mode : Lossy
Stream size : 15.2 MiB (5%)
Source stream size : 15.2 MiB (5%)
Language : English
Encoded date : UTC 2013-05-06 15:17:58
Tagged date : UTC 2013-05-06 15:17:58
mdhd_Duration : 2375294
Format : MPEG-4
Format profile : Base Media / Version 2
Codec ID : mp42
File size : 250 MiB
Duration : 46mn 49s
Overall bit rate : 746 Kbps
Encoded date : UTC 2013-05-23 17:25:14
Tagged date : UTC 2013-05-23 17:25:14

Video
ID : 1
Format : AVC
Format/Info : Advanced Video Codec
Format profile : High@L3.2
Format settings, CABAC : Yes
Format settings, ReFrames : 4 frames
Codec ID : avc1
Codec ID/Info : Advanced Video Coding
Duration : 46mn 49s
Source duration : 46mn 49s
Bit rate mode : Variable
Bit rate : 654 Kbps
Width : 1 156 pixels
Height : 838 pixels
Display aspect ratio : 1.379
Frame rate mode : Constant
Frame rate : 30.000 fps
Standard : NTSC
Color space : YUV
Chroma subsampling : 4:2:0
Bit depth : 8 bits
Scan type : Progressive
Bits/(Pixel*Frame) : 0.023
Stream size : 219 MiB (88%)
Source stream size : 231 MiB (92%)
Language : English
Encoded date : UTC 2013-05-23 17:25:14
Tagged date : UTC 2013-05-23 17:25:14
mdhd_Duration : 2811656
Color primaries : BT.709
Transfer characteristics : BT.709
Matrix coefficients : BT.709

Audio
ID : 2
Format : AAC
Format/Info : Advanced Audio Codec
Format profile : LC
Codec ID : 40
Duration : 46mn 49s
Source duration : 46mn 49s
Bit rate mode : Constant
Bit rate : 53.6 Kbps
Channel(s) : 2 channels
Channel positions : Front: L R
Sampling rate : 44.1 KHz
Compression mode : Lossy
Stream size : 17.9 MiB (7%)
Source stream size : 17.9 MiB (7%)
Language : English
Encoded date : UTC 2013-05-23 17:25:14
Tagged date : UTC 2013-05-23 17:25:14
mdhd_Duration : 2806922
General
Format : MPEG-4
Format profile : Base Media / Version 2
Codec ID : mp42
File size : 177 MiB
Duration : 31mn 5s
Overall bit rate : 797 Kbps
Encoded date : UTC 2013-05-23 18:09:45
Tagged date : UTC 2013-05-23 18:09:45

Video
ID : 1
Format : AVC
Format/Info : Advanced Video Codec
Format profile : High@L3.2
Format settings, CABAC : Yes
Format settings, ReFrames : 4 frames
Codec ID : avc1
Codec ID/Info : Advanced Video Coding
Duration : 31mn 5s
Source duration : 31mn 5s
Bit rate mode : Variable
Bit rate : 703 Kbps
Width : 1 156 pixels
Height : 838 pixels
Display aspect ratio : 1.379
Frame rate mode : Constant
Frame rate : 30.000 fps
Standard : NTSC
Color space : YUV
Chroma subsampling : 4:2:0
Bit depth : 8 bits
Scan type : Progressive
Bits/(Pixel*Frame) : 0.024
Stream size : 156 MiB (88%)
Source stream size : 165 MiB (93%)
Language : English
Encoded date : UTC 2013-05-23 18:09:45
Tagged date : UTC 2013-05-23 18:09:45
mdhd_Duration : 1865099
Color primaries : BT.709
Transfer characteristics : BT.709
Matrix coefficients : BT.709

Audio
ID : 2
Format : AAC
Format/Info : Advanced Audio Codec
Format profile : LC
Codec ID : 40
Duration : 31mn 5s
Source duration : 31mn 5s
Bit rate mode : Constant
Bit rate : 53.6 Kbps
Channel(s) : 2 channels
Channel positions : Front: L R
Sampling rate : 44.1 KHz
Compression mode : Lossy
Stream size : 11.9 MiB (7%)
Source stream size : 11.9 MiB (7%)
Language : English
Encoded date : UTC 2013-05-23 18:09:45
Tagged date : UTC 2013-05-23 18:09:45
mdhd_Duration : 1863996
General
Format : MPEG-4
Format profile : Base Media / Version 2
Codec ID : mp42
File size : 171 MiB
Duration : 43mn 23s
Overall bit rate : 550 Kbps
Encoded date : UTC 2013-06-25 20:54:10
Tagged date : UTC 2013-06-25 20:54:10

Video
ID : 1
Format : AVC
Format/Info : Advanced Video Codec
Format profile : High@L3.1
Format settings, CABAC : Yes
Format settings, ReFrames : 4 frames
Codec ID : avc1
Codec ID/Info : Advanced Video Coding
Duration : 43mn 23s
Source duration : 43mn 23s
Bit rate mode : Variable
Bit rate : 465 Kbps
Width : 1 166 pixels
Height : 430 pixels
Display aspect ratio : 2.712
Frame rate mode : Constant
Frame rate : 30.000 fps
Standard : NTSC
Color space : YUV
Chroma subsampling : 4:2:0
Bit depth : 8 bits
Scan type : Progressive
Bits/(Pixel*Frame) : 0.031
Stream size : 144 MiB (85%)
Source stream size : 153 MiB (90%)
Language : English
Encoded date : UTC 2013-06-25 20:54:10
Tagged date : UTC 2013-06-25 20:54:10
mdhd_Duration : 2604483
Color primaries : BT.709
Transfer characteristics : BT.709
Matrix coefficients : BT.709
Format : MPEG-4
Format profile : Base Media / Version 2
Codec ID : mp42
File size : 358 MiB
Duration : 52mn 19s
Overall bit rate : 956 Kbps
Encoded date : UTC 2013-06-29 21:16:01
Tagged date : UTC 2013-06-29 21:16:01

Video
ID : 1
Format : AVC
Format/Info : Advanced Video Codec
Format profile : High@L4.0
Format settings, CABAC : Yes
Format settings, ReFrames : 4 frames
Codec ID : avc1
Codec ID/Info : Advanced Video Coding
Duration : 52mn 19s
Source duration : 52mn 19s
Bit rate mode : Variable
Bit rate : 856 Kbps
Width : 1 852 pixels
Height : 1 094 pixels
Display aspect ratio : 1.693
Frame rate mode : Constant
Frame rate : 30.000 fps
Standard : NTSC
Color space : YUV
Chroma subsampling : 4:2:0
Bit depth : 8 bits
Scan type : Progressive
Bits/(Pixel*Frame) : 0.014
Stream size : 320 MiB (90%)
Source stream size : 337 MiB (94%)
Language : English
Encoded date : UTC 2013-06-29 21:16:01
Tagged date : UTC 2013-06-29 21:16:01
mdhd_Duration : 3142717
Color primaries : BT.709
Transfer characteristics : BT.709
Matrix coefficients : BT.709

Audio
ID : 2
Format : AAC
Format/Info : Advanced Audio Codec
Format profile : LC
Codec ID : 40
Duration : 52mn 19s
Source duration : 52mn 19s
Bit rate mode : Constant
Bit rate : 53.6 Kbps
Channel(s) : 2 channels
Channel positions : Front: L R
Sampling rate : 44.1 KHz
Compression mode : Lossy
Stream size : 20.1 MiB (6%)
Source stream size : 20.1 MiB (6%)
Language : English
Encoded date : UTC 2013-06-29 21:16:01
Tagged date : UTC 2013-06-29 21:16:01
mdhd_Duration : 3136476
Format : MPEG-4
Format profile : Base Media / Version 2
Codec ID : mp42
File size : 398 MiB
Duration : 58mn 46s
Overall bit rate : 948 Kbps
Encoded date : UTC 2013-07-14 19:51:04
Tagged date : UTC 2013-07-14 19:51:04

Video
ID : 1
Format : AVC
Format/Info : Advanced Video Codec
Format profile : High@L4.0
Format settings, CABAC : Yes
Format settings, ReFrames : 4 frames
Codec ID : avc1
Codec ID/Info : Advanced Video Coding
Duration : 58mn 46s
Source duration : 58mn 46s
Bit rate mode : Variable
Bit rate : 848 Kbps
Width : 1 612 pixels
Height : 804 pixels
Display aspect ratio : 2.005
Frame rate mode : Constant
Frame rate : 30.000 fps
Standard : NTSC
Color space : YUV
Chroma subsampling : 4:2:0
Bit depth : 8 bits
Scan type : Progressive
Bits/(Pixel*Frame) : 0.022
Stream size : 356 MiB (89%)
Source stream size : 375 MiB (94%)
Language : English
Encoded date : UTC 2013-07-14 19:51:04
Tagged date : UTC 2013-07-14 19:51:04
mdhd_Duration : 3531374
Color primaries : BT.709
Transfer characteristics : BT.709
Matrix coefficients : BT.709

Audio
ID : 2
Format : AAC
Format/Info : Advanced Audio Codec
Format profile : LC
Codec ID : 40
Duration : 58mn 46s
Source duration : 58mn 46s
Bit rate mode : Constant
Bit rate : 53.6 Kbps
Channel(s) : 2 channels
Channel positions : Front: L R
Sampling rate : 44.1 KHz
Compression mode : Lossy
Stream size : 22.5 MiB (6%)
Source stream size : 22.5 MiB (6%)
Language : English
Encoded date : UTC 2013-07-14 19:51:04
Tagged date : UTC 2013-07-14 19:51:04
mdhd_Duration : 3523365
Format : MPEG-4
Format profile : Base Media / Version 2
Codec ID : mp42
File size : 404 MiB
Duration : 39mn 16s
Overall bit rate : 1 438 Kbps
Encoded date : UTC 2013-07-20 20:42:31
Tagged date : UTC 2013-07-20 20:42:31

Video
ID : 1
Format : AVC
Format/Info : Advanced Video Codec
Format profile : High@L3.1
Format settings, CABAC : Yes
Format settings, ReFrames : 4 frames
Codec ID : avc1
Codec ID/Info : Advanced Video Coding
Duration : 39mn 16s
Source duration : 39mn 16s
Bit rate mode : Variable
Bit rate : 1 318 Kbps
Width : 1 412 pixels
Height : 514 pixels
Display aspect ratio : 2.747
Frame rate mode : Constant
Frame rate : 30.000 fps
Standard : NTSC
Color space : YUV
Chroma subsampling : 4:2:0
Bit depth : 8 bits
Scan type : Progressive
Bits/(Pixel*Frame) : 0.061
Stream size : 370 MiB (92%)
Source stream size : 388 MiB (96%)
Language : English
Encoded date : UTC 2013-07-20 20:42:31
Tagged date : UTC 2013-07-20 20:42:31
mdhd_Duration : 2357174
Color primaries : BT.709
Transfer characteristics : BT.709
Matrix coefficients : BT.709

Audio
ID : 2
Format : AAC
Format/Info : Advanced Audio Codec
Format profile : LC
Codec ID : 40
Duration : 39mn 16s
Source duration : 39mn 16s
Bit rate mode : Constant
Bit rate : 53.6 Kbps
Channel(s) : 2 channels
Channel positions : Front: L R
Sampling rate : 44.1 KHz
Compression mode : Lossy
Stream size : 15.1 MiB (4%)
Source stream size : 15.1 MiB (4%)
Language : English
Encoded date : UTC 2013-07-20 20:42:31
Tagged date : UTC 2013-07-20 20:42:31
mdhd_Duration : 2354512
Format : MPEG-4
Format profile : Base Media / Version 2
Codec ID : mp42
File size : 781 MiB
Duration : 1h 0mn
Overall bit rate : 1 793 Kbps
Encoded date : UTC 2013-08-03 13:56:45
Tagged date : UTC 2013-08-03 13:56:45

Video
ID : 1
Format : AVC
Format/Info : Advanced Video Codec
Format profile : High@L4.0
Format settings, CABAC : Yes
Format settings, ReFrames : 4 frames
Codec ID : avc1
Codec ID/Info : Advanced Video Coding
Duration : 1h 0mn
Source duration : 1h 0mn
Bit rate mode : Variable
Bit rate : 1 660 Kbps
Width : 1 610 pixels
Height : 858 pixels
Display aspect ratio : 1.85:1
Frame rate mode : Constant
Frame rate : 30.000 fps
Standard : NTSC
Color space : YUV
Chroma subsampling : 4:2:0
Bit depth : 8 bits
Scan type : Progressive
Bits/(Pixel*Frame) : 0.040
Stream size : 723 MiB (93%)
Source stream size : 757 MiB (97%)
Language : English
Encoded date : UTC 2013-08-03 13:56:45
Tagged date : UTC 2013-08-03 13:56:45
mdhd_Duration : 3659678
Color primaries : BT.709
Transfer characteristics : BT.709
Matrix coefficients : BT.709

Audio
ID : 2
Format : AAC
Format/Info : Advanced Audio Codec
Format profile : LC
Codec ID : 40
Duration : 1h 0mn
Source duration : 1h 0mn
Bit rate mode : Constant
Bit rate : 53.6 Kbps
Channel(s) : 2 channels
Channel positions : Front: L R
Sampling rate : 44.1 KHz
Compression mode : Lossy
Stream size : 23.3 MiB (3%)
Source stream size : 23.3 MiB (3%)
Language : English
Encoded date : UTC 2013-08-03 13:56:45
Tagged date : UTC 2013-08-03 13:56:45
mdhd_Duration : 3651091
Format : MPEG-4
Format profile : Base Media / Version 2
Codec ID : mp42
File size : 821 MiB
Duration : 59mn 24s
Overall bit rate : 1 932 Kbps
Encoded date : UTC 2013-08-04 09:43:19
Tagged date : UTC 2013-08-04 09:43:19

Video
ID : 1
Format : AVC
Format/Info : Advanced Video Codec
Format profile : High@L4.0
Format settings, CABAC : Yes
Format settings, ReFrames : 4 frames
Codec ID : avc1
Codec ID/Info : Advanced Video Coding
Duration : 59mn 24s
Source duration : 59mn 24s
Bit rate mode : Variable
Bit rate : 1 793 Kbps
Width : 1 618 pixels
Height : 860 pixels
Display aspect ratio : 1.881
Frame rate mode : Constant
Frame rate : 30.000 fps
Standard : NTSC
Color space : YUV
Chroma subsampling : 4:2:0
Bit depth : 8 bits
Scan type : Progressive
Bits/(Pixel*Frame) : 0.043
Stream size : 762 MiB (93%)
Source stream size : 797 MiB (97%)
Language : English
Encoded date : UTC 2013-08-04 09:43:19
Tagged date : UTC 2013-08-04 09:43:19
mdhd_Duration : 3569437
Color primaries : BT.709
Transfer characteristics : BT.709
Matrix coefficients : BT.709

Audio
ID : 2
Format : AAC
Format/Info : Advanced Audio Codec
Format profile : LC
Codec ID : 40
Duration : 59mn 24s
Source duration : 59mn 24s
Bit rate mode : Constant
Bit rate : 53.6 Kbps
Channel(s) : 2 channels
Channel positions : Front: L R
Sampling rate : 44.1 KHz
Compression mode : Lossy
Stream size : 22.8 MiB (3%)
Source stream size : 22.8 MiB (3%)
Language : English
Encoded date : UTC 2013-08-04 09:43:19
Tagged date : UTC 2013-08-04 09:43:19
mdhd_Duration : 3561263
Format : MPEG-4
Format profile : Base Media / Version 2
Codec ID : mp42
File size : 422 MiB
Duration : 1h 6mn
Overall bit rate : 886 Kbps
Encoded date : UTC 2013-08-15 14:41:12
Tagged date : UTC 2013-08-15 14:41:12

Video
ID : 1
Format : AVC
Format/Info : Advanced Video Codec
Format profile : High@L3.1
Format settings, CABAC : Yes
Format settings, ReFrames : 4 frames
Codec ID : avc1
Codec ID/Info : Advanced Video Coding
Duration : 1h 6mn
Source duration : 1h 6mn
Bit rate mode : Variable
Bit rate : 788 Kbps
Width : 1 440 pixels
Height : 522 pixels
Display aspect ratio : 2.759
Frame rate mode : Constant
Frame rate : 30.000 fps
Standard : NTSC
Color space : YUV
Chroma subsampling : 4:2:0
Bit depth : 8 bits
Scan type : Progressive
Bits/(Pixel*Frame) : 0.035
Stream size : 376 MiB (89%)
Source stream size : 395 MiB (94%)
Language : English
Encoded date : UTC 2013-08-15 14:41:12
Tagged date : UTC 2013-08-15 14:41:12
mdhd_Duration : 4003248
Color primaries : BT.709
Transfer characteristics : BT.709
Matrix coefficients : BT.709

Audio
ID : 2
Format : AAC
Format/Info : Advanced Audio Codec
Format profile : LC
Codec ID : 40
Duration : 1h 6mn
Source duration : 1h 6mn
Bit rate mode : Constant
Bit rate : 53.6 Kbps
Channel(s) : 2 channels
Channel positions : Front: L R
Sampling rate : 44.1 KHz
Compression mode : Lossy
Stream size : 25.5 MiB (6%)
Source stream size : 25.5 MiB (6%)
Language : English
Encoded date : UTC 2013-08-15 14:41:12
Tagged date : UTC 2013-08-15 14:41:12
mdhd_Duration : 3993100
Format : MPEG-4
Format profile : Base Media / Version 2
Codec ID : mp42
File size : 314 MiB
Duration : 53mn 11s
Overall bit rate : 824 Kbps
Encoded date : UTC 2013-08-18 19:52:01
Tagged date : UTC 2013-08-18 19:52:01

Video
ID : 1
Format : AVC
Format/Info : Advanced Video Codec
Format profile : High@L3.1
Format settings, CABAC : Yes
Format settings, ReFrames : 4 frames
Codec ID : avc1
Codec ID/Info : Advanced Video Coding
Duration : 53mn 11s
Source duration : 53mn 11s
Bit rate mode : Variable
Bit rate : 729 Kbps
Width : 1 426 pixels
Height : 522 pixels
Display aspect ratio : 2.732
Frame rate mode : Constant
Frame rate : 30.000 fps
Standard : NTSC
Color space : YUV
Chroma subsampling : 4:2:0
Bit depth : 8 bits
Scan type : Progressive
Bits/(Pixel*Frame) : 0.033
Stream size : 277 MiB (88%)
Source stream size : 292 MiB (93%)
Language : English
Encoded date : UTC 2013-08-18 19:52:01
Tagged date : UTC 2013-08-18 19:52:01
mdhd_Duration : 3194694
Color primaries : BT.709
Transfer characteristics : BT.709
Matrix coefficients : BT.709

Audio
ID : 2
Format : AAC
Format/Info : Advanced Audio Codec
Format profile : LC
Codec ID : 40
Duration : 53mn 11s
Source duration : 53mn 11s
Bit rate mode : Constant
Bit rate : 53.6 Kbps
Channel(s) : 2 channels
Channel positions : Front: L R
Sampling rate : 44.1 KHz
Compression mode : Lossy
Stream size : 20.4 MiB (7%)
Source stream size : 20.4 MiB (7%)
Language : English
Encoded date : UTC 2013-08-18 19:52:01
Tagged date : UTC 2013-08-18 19:52:01
mdhd_Duration : 3188221
Format : MPEG-4
Format profile : Base Media / Version 2
Codec ID : mp42
File size : 351 MiB
Duration : 1h 0mn
Overall bit rate : 813 Kbps
Encoded date : UTC 2013-08-19 10:11:57
Tagged date : UTC 2013-08-19 10:11:57

Video
ID : 1
Format : AVC
Format/Info : Advanced Video Codec
Format profile : High@L3.1
Format settings, CABAC : Yes
Format settings, ReFrames : 4 frames
Codec ID : avc1
Codec ID/Info : Advanced Video Coding
Duration : 1h 0mn
Source duration : 1h 0mn
Bit rate mode : Variable
Bit rate : 719 Kbps
Width : 1 426 pixels
Height : 522 pixels
Display aspect ratio : 2.732
Frame rate mode : Constant
Frame rate : 30.000 fps
Standard : NTSC
Color space : YUV
Chroma subsampling : 4:2:0
Bit depth : 8 bits
Scan type : Progressive
Bits/(Pixel*Frame) : 0.032
Stream size : 310 MiB (88%)
Source stream size : 327 MiB (93%)
Language : English
Encoded date : UTC 2013-08-19 10:11:57
Tagged date : UTC 2013-08-19 10:11:57
mdhd_Duration : 3628839
Color primaries : BT.709
Transfer characteristics : BT.709
Matrix coefficients : BT.709

Audio
ID : 2
Format : AAC
Format/Info : Advanced Audio Codec
Format profile : LC
Codec ID : 40
Duration : 1h 0mn
Source duration : 1h 0mn
Bit rate mode : Constant
Bit rate : 53.6 Kbps
Channel(s) : 2 channels
Channel positions : Front: L R
Sampling rate : 44.1 KHz
Compression mode : Lossy
Stream size : 23.2 MiB (7%)
Source stream size : 23.2 MiB (7%)
Language : English
Encoded date : UTC 2013-08-19 10:11:57
Tagged date : UTC 2013-08-19 10:11:57
mdhd_Duration : 3620383
Format : MPEG-4
Format profile : Base Media / Version 2
Codec ID : mp42
File size : 363 MiB
Duration : 1h 3mn
Overall bit rate : 802 Kbps
Encoded date : UTC 2013-08-20 08:57:03
Tagged date : UTC 2013-08-20 08:57:03

Video
ID : 1
Format : AVC
Format/Info : Advanced Video Codec
Format profile : High@L3.1
Format settings, CABAC : Yes
Format settings, ReFrames : 4 frames
Codec ID : avc1
Codec ID/Info : Advanced Video Coding
Duration : 1h 3mn
Source duration : 1h 3mn
Bit rate mode : Variable
Bit rate : 708 Kbps
Width : 1 426 pixels
Height : 522 pixels
Display aspect ratio : 2.732
Frame rate mode : Constant
Frame rate : 30.000 fps
Standard : NTSC
Color space : YUV
Chroma subsampling : 4:2:0
Bit depth : 8 bits
Scan type : Progressive
Bits/(Pixel*Frame) : 0.032
Stream size : 321 MiB (88%)
Source stream size : 338 MiB (93%)
Language : English
Encoded date : UTC 2013-08-20 08:57:03
Tagged date : UTC 2013-08-20 08:57:03
mdhd_Duration : 3806779
Color primaries : BT.709
Transfer characteristics : BT.709
Matrix coefficients : BT.709

Audio
ID : 2
Format : AAC
Format/Info : Advanced Audio Codec
Format profile : LC
Codec ID : 40
Duration : 1h 3mn
Source duration : 1h 3mn
Bit rate mode : Constant
Bit rate : 53.6 Kbps
Channel(s) : 2 channels
Channel positions : Front: L R
Sampling rate : 44.1 KHz
Compression mode : Lossy
Stream size : 24.3 MiB (7%)
Source stream size : 24.3 MiB (7%)
Language : English
Encoded date : UTC 2013-08-20 08:57:03
Tagged date : UTC 2013-08-20 08:57:03
mdhd_Duration : 3797534
 
Не забывайте говорить Спасибо. Не уходите с раздачи!   
Торрент: Зарегистрирован [05 июл 2016, 18:22] Скачать торрент
Скачать торрент
[ Размер 117.25 КБ / Просмотров 75 ]
Статус:
Проверен
 
.torrent скачан: 0 раз
Хэш: c1d3ebb1e297dbf1481296ff3b717ac1541bc836
Размер: 43.03 ГБ (46 204 717 574 байт)
Стать Автором раздачи
 
 
Раздал: 100 ГБ
Скачал: 0 байт
Ратио: Seed.
Сообщения: 195813
Зарегистрирован: 09 апр 2015, 20:00


  • Похожие торренты
    Ответы
    Просмотры
    Последнее сообщение

Вернуться в Покер

Ресурс не предоставляет электронные версии произведений, а занимается лишь коллекционированием и каталогизацией ссылок, присылаемых и публикуемых на форуме нашими читателями. Если вы являетесь правообладателем какого-либо представленного материала и не желаете чтобы ссылка на него находилась в нашем каталоге, свяжитесь с нами и мы незамедлительно удалим её. Файлы для обмена на трекере предоставлены пользователями сайта, и администрация не несёт ответственности за их содержание. Просьба не заливать файлы, защищенные авторскими правами, а также файлы нелегального содержания!
cron