Футбол. Чемпионат Европы 2016. 1/8 финала. Венгрия - Бельгия (26.06.2016) HDTV [H.264/1080i]

 
 Статистика раздачи 
Размер: 6.85 ГБ   |  Зарегистрирован: 27 июн 2016, 00:50   |   .torrent скачан: 0 раз
Сидеров: 1  [ 0 байт/сек ]     Личеров: 0  [ 0 байт/сек ]  
  

Футбол. Чемпионат Европы 2016. 1/8 финала. Венгрия - Бельгия (26.06.2016) HDTV [H.264/1080i]

Сообщение explosiveone » 27 июн 2016, 00:50

Футбол. Чемпионат Европы 2016. 1/8 финала. Венгрия - Бельгия (26.06.2016) HDTV [H.264/1080i] (Россия HD)

Телекомпания: Россия HD

Жанр: Спорт
Язык озвучки: Русский (Владимир Стогниенко)

Описание:
26 июня 2016, воскресенье. 22:00 МСК
1/8 финала.

Стадион: Мунисипал (Тулуза, Франция) , 38 921 зритель (110 % при вместимости 35 472)
Главный судья: Милорад Мажич (Врбас, Сербия)
Ассистент: Милован Ристич (Врбас, Сербия)
Ассистент: Далибор Джурджевич (Сербия)
Резервный: Юнас Эрикссон (Сигтуна, Швеция)

Дополнительная информация: Без рекламы

Автор записи: steep2013
Продолжительность: 01:54:43
Качество видео: HDTV

Видео: AVC/H.264, 1920:1080, ~7935 Kbps
Аудио: MP2, 2 ch, 192 Kbps, CBR
Код:
Код: Выделить всё
Общее
Идентификатор                            : 1 (0x1)
Полное имя                               : F:\ТВ\Чемпионат Европы по футболу 2016\(2016.06.26)ЧЕ по футболу 2016. Одна восьмая финала. Венгрия - Бельгия_(Россия HD)_HDTV_1080i_steep.ts
Формат                                   : MPEG-TS
Размер файла                             : 6,85 Гбайт
Продолжительность                        : 1 ч. 54 м.
Режим общего битрейта                    : Переменный
Общий поток                              : 8551 Кбит/сек

Видео
Идентификатор                            : 1000 (0x3E8)
Идентификатор меню                       : 1 (0x1)
Формат                                   : AVC
Формат/Информация                        : Advanced Video Codec
Профиль формата                          : High@L4
Параметр CABAC формата                   : Да
Параметр ReFrames формата                : 4 кадра
Параметр GOP формата                     : M=4, N=32
Идентификатор кодека                     : 27
Продолжительность                        : 1 ч. 54 м.
Битрейт                                  : 7935 Кбит/сек
Ширина                                   : 1920 пикселей
Высота                                   : 1080 пикселей
Соотношение сторон                       : 16:9
Частота кадров                           : 25,000 кадров/сек
Цветовое пространство                    : YUV
Субдискретизация насыщенности            : 4:2:0
Битовая глубина                          : 8 бит
Тип развёртки                            : MBAFF
Метод сохранения типа развёртки          : Чередующиеся поля
Порядок развёртки                        : Верхнее поле первое
Бит/(Пиксели*Кадры)                      : 0.153
Размер потока                            : 6,36 Гбайт (93%)

Аудио
Идентификатор                            : 1101 (0x44D)
Идентификатор меню                       : 1 (0x1)
Формат                                   : MPEG Audio
Версия формата                           : Version 1
Профиль формата                          : Layer 2
Режим                                    : Joint stereo
Расширение режима                        : Intensity Stereo + MS Stereo
Идентификатор кодека                     : 3
Продолжительность                        : 1 ч. 54 м.
Вид битрейта                             : Постоянный
Битрейт                                  : 192 Кбит/сек
Каналы                                   : 2 канала
Частота                                  : 48,0 КГц
Метод сжатия                             : С потерями
Размер потока                            : 158 Мбайт (2%)
Язык                                     : English

Скриншоты:




Время раздачи: 24/7 (до появления первых 3-5 скачавших)
 
Не забывайте говорить Спасибо. Не уходите с раздачи!   
Торрент: Зарегистрирован [27 июн 2016, 00:50] Скачать торрент
Скачать торрент
[ Размер 18.06 КБ / Просмотров 49 ]
Статус:
Проверен
 
.torrent скачан: 0 раз
Хэш: e0b3f78ce8c9cb4e2f1d5c912a340291988a0df9
Размер: 6.85 ГБ (7 357 353 116 байт)
Стать Автором раздачи
 
 
Раздал: 100 ГБ
Скачал: 0 байт
Ратио: Seed.
Сообщения: 112044
Зарегистрирован: 09 апр 2015, 22:31


  • Похожие торренты
    Ответы
    Просмотры
    Последнее сообщение

Вернуться в Чемпионат Европы 2016 (отборочная часть)

Ресурс не предоставляет электронные версии произведений, а занимается лишь коллекционированием и каталогизацией ссылок, присылаемых и публикуемых на форуме нашими читателями. Если вы являетесь правообладателем какого-либо представленного материала и не желаете чтобы ссылка на него находилась в нашем каталоге, свяжитесь с нами и мы незамедлительно удалим её. Файлы для обмена на трекере предоставлены пользователями сайта, и администрация не несёт ответственности за их содержание. Просьба не заливать файлы, защищенные авторскими правами, а также файлы нелегального содержания!
cron