Бомбардировщики стран Оси / Axis Bombers (Режиссер: Джонатан Мур / Jonathan Moore) [1993, военный, DVD5 (Custom)]

 
 Статистика раздачи 
Размер: 3.3 ГБ   |  Зарегистрирован: 26 июн 2016, 20:17   |   .torrent скачан: 0 раз
Сидеров: 2  [ 0 байт/сек ]     Личеров: 1  [ 0 байт/сек ]  
  

Бомбардировщики стран Оси / Axis Bombers (Режиссер: Джонатан Мур / Jonathan Moore) [1993, военный, DVD5 (Custom)]

Сообщение aLaVodka » 26 июн 2016, 20:17

Бомбардировщики стран Оси / Axis Bombers

Год выпуска: 1993
Страна: Великобритания
Жанр: военный
Продолжительность: 00:58:40
Перевод: Одноголосый закадровый
Доп. инфо о переводе: den904
Русские субтитры: есть

Режиссер: Режиссер: Джонатан Мур / Jonathan Moore

Описание: Документальный фильм о бомбардировщиках стран Оси: Германии, Италии и Японии. История их создания и боевого применения во время Второй мировой войны. «Штука», Юнкерсы, Хейнкели, Дорнье, и другие самолеты, кампании в Испании, Абиссинии и Китае, поля сражений в небе над Европой, Дальнего Востока и океанов, разрушительные бомбардировки мирных городов, уничтожение кораблей Союзных войск.

Доп. информация: Перевод субтитрами karlivanovich, по ним проведена озвучка. Перевод и озвучка состоялись благодаря privedenie. Наложение чистого голоса на оригинальную дорогу Нордер. Всем спасибо.

Используемое ПО:
PGCDemux (извлечение).
BeSweet, Sony Vegas 9 (звук) Нордер.
MuxMan (сборка).
VobBlanker (финал)

Меню: есть, озвучено, статичное.

Релиз:

Сэмпл: http://sendfile.su/1245659

Главы (разбивка по трекам): есть
Качество: DVD5 (Custom)
Формат: DVD Video
Видео кодек: MPEG2
Аудио кодек: AC3
Видео: NTSC 4:3 (720x480) VBR, ~ 8049.61 kbps avg
Аудио 1: Russian (Dolby AC3, 2 ch, 192 kbps)
Аудио 2: English (Dolby AC3, 2 ch, 192 kbps)
Код: Выделить всё
Size: 3.30 Gb ( 3 458 834,00 KBytes ) - DVD-5
Enabled regions: 1, 2, 3, 4, 5, 6, 7, 8

VTS_01 :
  Play Length: 00:00:12+00:58:28
  Video: NTSC 4:3 (720x480) VBR
  Audio:
      Russian, AC3, 2/0 (L,R) ch, 192 kbps, Delay 0 mSec
      English,

  Subtitles:
      Russian

* Menus Information *

VIDEO_TS Menu
Video:
      NTSC 4:3 (720x480) VBR
      Auto Pan&Scan, Auto Letterboxed
English Language Unit :

VTS_01 Menu
Video:
      NTSC 4:3 (720x480) VBR
Audio:
      Not specified (Dolby AC3, 2 ch)
English Language Unit :
      Root Menu
Код: Выделить всё
Формат                                   : MPEG-PS
Размер файла                             : 1024 Мбайт
Продолжительность                        : 17 м.
Режим общего битрейта                    : Переменный
Общий поток                              : 8120 Кбит/сек

Видео
Идентификатор                            : 224 (0xE0)
Формат                                   : MPEG Video
Версия формата                           : Version 2
Профиль формата                          : [email protected]
Параметр BVOP формата                    : Да
Параметр матрицы формата                 : По умолчанию
Параметр GOP формата                     : Variable
Продолжительность                        : 17 м.
Вид битрейта                             : Переменный
Битрейт                                  : 7574 Кбит/сек
Максимальный битрейт                     : 9000 Кбит/сек
Ширина                                   : 720 пикселей
Высота                                   : 480 пикселей
Соотношение сторон                       : 4:3
Частота кадров                           : 29,970 кадров/сек
Стандарт вещания                         : NTSC
Цветовое пространство                    : YUV
Субдискретизация насыщенности            : 4:2:0
Битовая глубина                          : 8 бит
Тип развёртки                            : Чересстрочная
Порядок развёртки                        : Верхнее поле первое
Метод сжатия                             : С потерями
Бит/(Пиксели*Кадры)                      : 0.731
Временной код первого кадра              : 01:00:00:00
Оригинал временного кода                 : Group of pictures header
Размер потока                            : 955 Мбайт (93%)
Основные цвета                           : BT.601 NTSC
Характеристики трансфера                 : BT.601
Коэффициенты матрицы                     : BT.601

Аудио #1
Идентификатор                            : 189 (0xBD)-128 (0x80)
Формат                                   : AC-3
Формат/Информация                        : Audio Coding 3
Расширение режима                        : CM (complete main)
Параметр Endianness формата              : Big
Режим смешивания                         : DVD-Video
Продолжительность                        : 17 м.
Вид битрейта                             : Постоянный
Битрейт                                  : 192 Кбит/сек
Каналы                                   : 2 канала
Расположение каналов                     : Front: L R
Частота                                  : 48,0 КГц
Битовая глубина                          : 16 бит
Метод сжатия                             : С потерями
Размер потока                            : 24,2 Мбайт (2%)

Аудио #2
Идентификатор                            : 189 (0xBD)-129 (0x81)
Формат                                   : AC-3
Формат/Информация                        : Audio Coding 3
Расширение режима                        : CM (complete main)
Параметр Endianness формата              : Big
Режим смешивания                         : DVD-Video
Продолжительность                        : 4 с. 928 мс.
Вид битрейта                             : Постоянный
Битрейт                                  : 192 Кбит/сек
Каналы                                   : 2 канала
Расположение каналов                     : Front: L R
Частота                                  : 48,0 КГц
Битовая глубина                          : 16 бит
Метод сжатия                             : С потерями
Размер потока                            : 116 Кбайт (0%)

Текст
Идентификатор                            : 189 (0xBD)-32 (0x20)
Формат                                   : RLE
Формат/Информация                        : Run-length encoding
Режим смешивания                         : DVD-Video

Меню
 
Не забывайте говорить Спасибо. Не уходите с раздачи!   
Торрент: Зарегистрирован [26 июн 2016, 20:17] Для скачивания .torrent
необходима регистрация
Или скачать с помощью
MediaGet
Статус:
Проверен
 
.torrent скачан: 0 раз
Хэш: 67a345d4ed5318e6b2b744f223effeb2b917c839
Размер: 3.3 ГБ (3 541 846 016 байт)
Стать Автором раздачи
 
 
Раздал: 100 ГБ
Скачал: 0 байт
Ратио: Seed.
Сообщения: 183346
Зарегистрирован: 09 апр 2015, 20:00


  • Похожие торренты
    Ответы
    Просмотры
    Последнее сообщение

Вернуться в Документальные (DVD)

Кто сейчас на конференции

Сейчас эту тему просматривают: нет зарегистрированных пользователей и гости: 1

Ресурс не предоставляет электронные версии произведений, а занимается лишь коллекционированием и каталогизацией ссылок, присылаемых и публикуемых на форуме нашими читателями. Если вы являетесь правообладателем какого-либо представленного материала и не желаете чтобы ссылка на него находилась в нашем каталоге, свяжитесь с нами и мы незамедлительно удалим её. Файлы для обмена на трекере предоставлены пользователями сайта, и администрация не несёт ответственности за их содержание. Просьба не заливать файлы, защищенные авторскими правами, а также файлы нелегального содержания!