Ночь в музее: Секрет гробницы / Night at the Museum: Secret of the Tomb (2014) HDRip [AVI|320x174]

 
 Статистика раздачи 
Размер: 314.91 МБ   |  Зарегистрирован: 26 июн 2016, 10:20   |   .torrent скачан: 0 раз
Сидеров: 1  [ 0 байт/сек ]     Личеров: 0  [ 0 байт/сек ]  
  

Ночь в музее: Секрет гробницы / Night at the Museum: Secret of the Tomb (2014) HDRip [AVI|320x174]

Сообщение explosiveone » 26 июн 2016, 10:20

Ночь в музее: Секрет гробницы / Night at the Museum: Secret of the Tomb (2014) HDRip

Производство: США, Великобритания / Twentieth Century Fox Film Corporation, 21 Laps Entertainment, 1492 Pictures
Жанр: Семейный, Комедия, Приключения

Режиссер: Шон Леви
Актеры: Бен Стиллер, Робин Уильямс, Оуэн Уилсон, Бен Кингсли, Стив Куган, Рики Джервэйс, Дэн Стивенс, Ребел Уилсон, Скайлер Джизондо, Рами Малек, Патрик Галлахер

Описание:
Ночной сторож Музея естественной истории в Нью-Йорке Ларри Дэйли в отчаянии: его друзья-экспонаты начинают странно себя вести, а всё потому, что оживляющая их древнеегипетская золотая пластина разрушается. Только отец фараона Ахкменра знает тайну магического артефакта, но вот беда — его мумия далеко, она выставлена в Британском музее естествознания! Команда любимых героев предпринимает беспрецедентное путешествие в Лондон. Они должны объединиться с британскими экспонатами и рискнуть всем, чтобы восстановить золотую пластину до того, как Ларри потеряет своих друзей навсегда.


Возраст: 6+ (зрителям, достигшим 6 лет)
Рейтинг MPAA: PG (рекомендуется присутствие родителей)
Дата мировой премьеры: 17 декабря 2014
Дата российской премьеры: 8 января 2015
Дата выхода DVD/Blu-ray релиза: 19 марта 2015

Продолжительность: 01:37:48
Качество видео: HDRip
Перевод: Дублированный

Видео: Xvid, 320x174, ~350 kbps
Аудио: MP3, 2 ch, 96 kbps
Код:
Код: Выделить всё
Общее
Полное имя                               : D:\Noch.v.muzee.3.Sekret.grobnicy.2014.BDRip.320x.kpk.by.NeoJet.avi
Формат                                   : AVI
Формат/Информация                        : Audio Video Interleave
Размер файла                             : 315 Мбайт
Продолжительность                        : 1 ч. 37 м.
Режим общего битрейта                    : Переменный
Общий поток                              : 450 Кбит/сек
Программа кодирования                    : MEncoder SVN-r31918
Библиотека кодирования                   : MPlayer

Видео
Идентификатор                            : 0
Формат                                   : MPEG-4 Visual
Профиль формата                          : Advanced Simple@L5
Параметр BVOP формата                    : 2
Параметр QPel формата                    : Нет
Параметр GMC формата                     : Без точки перехода
Параметр матрицы формата                 : Default (H.263)
Идентификатор кодека                     : XVID
Идентификатор кодека/Подсказка           : XviD
Продолжительность                        : 1 ч. 37 м.
Битрейт                                  : 345 Кбит/сек
Ширина                                   : 320 пикселей
Высота                                   : 174 пикселя
Соотношение сторон                       : 1,85:1
Частота кадров                           : 23,976 кадра/сек
Цветовое пространство                    : YUV
Субдискретизация насыщенности            : 4:2:0
Битовая глубина                          : 8 бит
Тип развёртки                            : Прогрессивная
Метод сжатия                             : С потерями
Бит/(Пиксели*Кадры)                      : 0.259
Размер потока                            : 242 Мбайт (77%)
Библиотека кодирования                   : XviD 1.2.1 (UTC 2008-12-04)

Аудио
Идентификатор                            : 1
Формат                                   : MPEG Audio
Версия формата                           : Version 1
Профиль формата                          : Layer 3
Идентификатор кодека                     : 55
Идентификатор кодека/Подсказка           : MP3
Продолжительность                        : 1 ч. 37 м.
Вид битрейта                             : Переменный
Битрейт                                  : 92,1 Кбит/сек
Каналы                                   : 2 канала
Частота                                  : 48,0 КГц
Метод сжатия                             : С потерями
Размер потока                            : 64,4 Мбайт (20%)
Выравнивание                             : Соединение по промежуткам
Продолжительность промежутка             : 24  мс. (0,58 видеокадр)
Время предзагрузки промежутка            : 175  мс.
Библиотека кодирования                   : LAME3.98.4

Скриншоты:



Время раздачи: 24/7 (круглосуточно) (раздаю до 10 июля 2016)
 
Не забывайте говорить Спасибо. Не уходите с раздачи!   
Торрент: Зарегистрирован [26 июн 2016, 10:20] Для скачивания .torrent
необходима регистрация
Или скачать с помощью
MediaGet
Статус:
Проверен
 
.torrent скачан: 0 раз
Хэш: 8a14b33626ca9e659e92ee8dc4bf10daea47ae5b
Размер: 314.91 МБ (330 203 920 байт)
Стать Автором раздачи
 
 
Раздал: 100 ГБ
Скачал: 0 байт
Ратио: Seed.
Сообщения: 94020
Зарегистрирован: 09 апр 2015, 22:31


  • Похожие торренты
    Ответы
    Просмотры
    Последнее сообщение

Вернуться в Видео для мобильных устройств

Ресурс не предоставляет электронные версии произведений, а занимается лишь коллекционированием и каталогизацией ссылок, присылаемых и публикуемых на форуме нашими читателями. Если вы являетесь правообладателем какого-либо представленного материала и не желаете чтобы ссылка на него находилась в нашем каталоге, свяжитесь с нами и мы незамедлительно удалим её. Файлы для обмена на трекере предоставлены пользователями сайта, и администрация не несёт ответственности за их содержание. Просьба не заливать файлы, защищенные авторскими правами, а также файлы нелегального содержания!
cron