Музей восковых фигур / Waxwork (1988) HDTVRip [AVI|320x178]

 
 Статистика раздачи 
Размер: 307.42 МБ   |  Зарегистрирован: 25 июн 2016, 05:14   |   .torrent скачан: 0 раз
Сидеров: 1  [ 0 байт/сек ]     Личеров: 0  [ 0 байт/сек ]  
  

Музей восковых фигур / Waxwork (1988) HDTVRip [AVI|320x178]

Сообщение explosiveone » 25 июн 2016, 05:14

Музей восковых фигур / Waxwork (1988) HDTVRip

Производство: США, Великобритания, Германия (ФРГ) / Contemporary Films, Electric Pictures, HB Filmrullen, Palla, Vestron Pictures
Жанр: Ужасы, Комедия

Режиссер: Энтони Хикокс
Актеры: Зэк Гэллигэн, Дебора Формэн, Мишель Джонсон, Дэна Эшбрук, Майлз ОКиффи, Дж.Кеннет Кэмпбелл, Джон Рис Дэвис, Пэтрик Макни, Дэвид Уорнер

Описание:
Неизвестно откуда в городе появляется музей восковых фигур, в котором собраны самые страшные монстры в истории мистики Дракула, маркиз Де Сад, Призрак оперы, Франкейштейн и многие другие. Зловещий хранитель музея приглашает группу школьников, модерновых припанкованных подростков, на презентацию открытия музея, которая должна состояться ровно в полночь. Придя в музей, они обнаруживают «неполноценность» коллекции — некоторым восковым миниатюрам (а это, как правило, сценки из жизни не самых приятных исторических персонажей типа маркиза Де Сада или графа Дракулы) не хватает героев… В смысле — жертв… А в городе, между тем, пропадают люди…


Возраст: 16+ (зрителям, достигшим 16 лет)
Рейтинг MPAA: R (лицам до 17 лет обязательно присутствие взрослого)
Дата мировой премьеры: 17 июня 1988

Продолжительность: 01:37:11
Качество видео: HDTVRip
Перевод: Многоголосый закадровый (Андрей Гаврилов, Михаил Иванов, Владислав Огородников, Андрей Дольский, Василий Горчаков)

Видео: Xvid, 320x178, ~350 kbps
Аудио: MP3, 2 ch, 96 kbps
Код:
Код: Выделить всё
Общее
Полное имя                               : D:\DM\T\Muzej.voskovyh.figur.1.1988.HDTVRip.320x.kpk.by.NeoJet.avi
Формат                                   : AVI
Формат/Информация                        : Audio Video Interleave
Размер файла                             : 307 Мбайт
Продолжительность                        : 1 ч. 37 м.
Режим общего битрейта                    : Переменный
Общий поток                              : 442 Кбит/сек
Программа кодирования                    : MEncoder SVN-r31918
Библиотека кодирования                   : MPlayer

Видео
Идентификатор                            : 0
Формат                                   : MPEG-4 Visual
Профиль формата                          : Advanced Simple@L5
Параметр BVOP формата                    : 2
Параметр QPel формата                    : Нет
Параметр GMC формата                     : Без точки перехода
Параметр матрицы формата                 : Default (H.263)
Идентификатор кодека                     : XVID
Идентификатор кодека/Подсказка           : XviD
Продолжительность                        : 1 ч. 37 м.
Битрейт                                  : 339 Кбит/сек
Ширина                                   : 320 пикселей
Высота                                   : 178 пикселей
Соотношение сторон                       : 16:9
Частота кадров                           : 23,976 кадра/сек
Цветовое пространство                    : YUV
Субдискретизация насыщенности            : 4:2:0
Битовая глубина                          : 8 бит
Тип развёртки                            : Прогрессивная
Метод сжатия                             : С потерями
Бит/(Пиксели*Кадры)                      : 0.248
Размер потока                            : 236 Мбайт (77%)
Библиотека кодирования                   : XviD 1.2.1 (UTC 2008-12-04)

Аудио
Идентификатор                            : 1
Формат                                   : MPEG Audio
Версия формата                           : Version 1
Профиль формата                          : Layer 3
Идентификатор кодека                     : 55
Идентификатор кодека/Подсказка           : MP3
Продолжительность                        : 1 ч. 37 м.
Вид битрейта                             : Переменный
Битрейт                                  : 90,7 Кбит/сек
Каналы                                   : 2 канала
Частота                                  : 48,0 КГц
Метод сжатия                             : С потерями
Размер потока                            : 63,0 Мбайт (20%)
Выравнивание                             : Соединение по промежуткам
Продолжительность промежутка             : 24  мс. (0,58 видеокадр)
Время предзагрузки промежутка            : 588  мс.

Скриншоты:



Время раздачи: 24/7 (круглосуточно) (раздаю до 10 июля 2016)
 
Не забывайте говорить Спасибо. Не уходите с раздачи!   
Торрент: Зарегистрирован [25 июн 2016, 05:14] Для скачивания .torrent
необходима регистрация
Или скачать с помощью
MediaGet
Статус:
Проверен
 
.torrent скачан: 0 раз
Хэш: 69cd81c7584e97d822a093f43d4721c735bd6d7c
Размер: 307.42 МБ (322 357 996 байт)
Стать Автором раздачи
 
 
Раздал: 100 ГБ
Скачал: 0 байт
Ратио: Seed.
Сообщения: 94053
Зарегистрирован: 09 апр 2015, 22:31


  • Похожие торренты
    Ответы
    Просмотры
    Последнее сообщение

Вернуться в Видео для мобильных устройств

Ресурс не предоставляет электронные версии произведений, а занимается лишь коллекционированием и каталогизацией ссылок, присылаемых и публикуемых на форуме нашими читателями. Если вы являетесь правообладателем какого-либо представленного материала и не желаете чтобы ссылка на него находилась в нашем каталоге, свяжитесь с нами и мы незамедлительно удалим её. Файлы для обмена на трекере предоставлены пользователями сайта, и администрация не несёт ответственности за их содержание. Просьба не заливать файлы, защищенные авторскими правами, а также файлы нелегального содержания!
cron