Кикбоксер 5: Возмездие / Kikboxer 5: Retribution (1995) DVDRip [AVI|320x240]

 
 Статистика раздачи 
Размер: 279.81 МБ   |  Зарегистрирован: 25 июн 2016, 03:09   |   .torrent скачан: 1 раз
Сидеров: 1  [ 0 байт/сек ]     Личеров: 0  [ 0 байт/сек ]  
  

Кикбоксер 5: Возмездие / Kikboxer 5: Retribution (1995) DVDRip [AVI|320x240]

Сообщение explosiveone » 25 июн 2016, 03:09

Кикбоксер 5: Возмездие / Kikboxer 5: Retribution (1995) DVDRip

Производство: США
Жанр: Боевик, Триллер, Драма

Режиссер: Кристин Питерсон / Kristine Peterson
Актеры: Марк Дакаскос, Джеймс Райан, Джофф Мид, Тони Капрари, Грег Лэттер, Дуан Портер, Джордж Мулман, Рулан Бут, Роберт Уайтхед, Денни Пирс

Описание:
Матт Ривз, завершив свою спортивную карьеру, совершенствует мастерство, преподает боевые искусства и тренирует своего друга Джонни Стайлса. По совету Матта Джонни отказывается подписывать контракт с незаконной федерацией из Южной Африки и Матт находит своего ученика мертвым.
Для того, чтобы отомстить Матт отправляется в ЮАР, где находит убийцу в принадлежащем ему частном казино — этакой смеси Лас — Вегаса и дикой Африки. Оба противника весьма искусные бойцы и схватка происходит почти на равных, однако на стороне Матта правда и справедливость, во имя которых он и побеждает.


Возраст: 16+ (зрителям, достигшим 16 лет)
Рейтинг MPAA: R (лицам до 17 лет обязательно присутствие взрослого)
Дата мировой премьеры: 9 апреля 1995

Продолжительность: 01:27:26
Качество видео: DVDRip
Перевод: Двуголосый закадровый (REN-TV)

Видео: Xvid, 320x240, ~350 kbps
Аудио: MP3, 2 ch, 96 kbps
Код:
Код: Выделить всё
Общее
Полное имя                               : D:\Kickboxer.5.Vozmezdie.1995.DVDRip.320x.kpk.by.NeoJet.avi
Формат                                   : AVI
Формат/Информация                        : Audio Video Interleave
Размер файла                             : 280 Мбайт
Продолжительность                        : 1 ч. 27 м.
Режим общего битрейта                    : Переменный
Общий поток                              : 447 Кбит/сек
Программа кодирования                    : MEncoder SVN-r31918
Библиотека кодирования                   : MPlayer

Видео
Идентификатор                            : 0
Формат                                   : MPEG-4 Visual
Профиль формата                          : Advanced Simple@L5
Параметр BVOP формата                    : 2
Параметр QPel формата                    : Нет
Параметр GMC формата                     : Без точки перехода
Параметр матрицы формата                 : Default (H.263)
Идентификатор кодека                     : XVID
Идентификатор кодека/Подсказка           : XviD
Продолжительность                        : 1 ч. 27 м.
Битрейт                                  : 345 Кбит/сек
Ширина                                   : 320 пикселей
Высота                                   : 240 пикселей
Соотношение сторон                       : 4:3
Соотношение сторон в оригинале           : 4:3
Частота кадров                           : 23,976 кадра/сек
Цветовое пространство                    : YUV
Субдискретизация насыщенности            : 4:2:0
Битовая глубина                          : 8 бит
Тип развёртки                            : Прогрессивная
Метод сжатия                             : С потерями
Бит/(Пиксели*Кадры)                      : 0.188
Размер потока                            : 216 Мбайт (77%)
Библиотека кодирования                   : XviD 1.2.1 (UTC 2008-12-04)

Аудио
Идентификатор                            : 1
Формат                                   : MPEG Audio
Версия формата                           : Version 1
Профиль формата                          : Layer 3
Идентификатор кодека                     : 55
Идентификатор кодека/Подсказка           : MP3
Продолжительность                        : 1 ч. 27 м.
Вид битрейта                             : Переменный
Битрейт                                  : 89,4 Кбит/сек
Каналы                                   : 2 канала
Частота                                  : 48,0 КГц
Метод сжатия                             : С потерями
Размер потока                            : 55,9 Мбайт (20%)
Выравнивание                             : Соединение по промежуткам
Продолжительность промежутка             : 24  мс. (0,58 видеокадр)
Время предзагрузки промежутка            : 549  мс.

Скриншоты:



Время раздачи: 24/7 (круглосуточно) (раздаю до 10 июля 2016)
 
Не забывайте говорить Спасибо. Не уходите с раздачи!   
Торрент: Зарегистрирован [25 июн 2016, 03:09] Для скачивания .torrent
необходима регистрация
Или скачать с помощью
MediaGet
Статус:
Проверен
 
.torrent скачан: 1 раз
Хэш: 50581ad9d965649ec31f01011aef94b0effa856a
Размер: 279.81 МБ (293 402 170 байт)
Стать Автором раздачи
 
 
Раздал: 100 ГБ
Скачал: 0 байт
Ратио: Seed.
Сообщения: 94007
Зарегистрирован: 09 апр 2015, 22:31


  • Похожие торренты
    Ответы
    Просмотры
    Последнее сообщение

Вернуться в Видео для мобильных устройств

Ресурс не предоставляет электронные версии произведений, а занимается лишь коллекционированием и каталогизацией ссылок, присылаемых и публикуемых на форуме нашими читателями. Если вы являетесь правообладателем какого-либо представленного материала и не желаете чтобы ссылка на него находилась в нашем каталоге, свяжитесь с нами и мы незамедлительно удалим её. Файлы для обмена на трекере предоставлены пользователями сайта, и администрация не несёт ответственности за их содержание. Просьба не заливать файлы, защищенные авторскими правами, а также файлы нелегального содержания!
cron